<?xml version="1.0" standalone="no"?>
<!DOCTYPE svg PUBLIC "-//W3C//DTD SVG 1.1//EN" "http://www.w3.org/Graphics/SVG/1.1/DTD/svg11.dtd" >
<svg>
<metadata>
Created by FontForge 20090622 at Mon Jun 29 07:06:36 2020
 By deploy user
Copyright 2007 Monotype Imaging Ltd.
</metadata>
<defs>
<font id="RTVickerman-Light" horiz-adv-x="518" >
  <font-face 
    font-family="RT_Vickerman Light"
    font-weight="300"
    font-stretch="normal"
    units-per-em="1000"
    panose-1="2 11 3 3 2 1 3 2 2 4"
    ascent="737"
    descent="-263"
    x-height="512"
    cap-height="727"
    bbox="-147 -230 1163 959"
    underline-thickness="20"
    underline-position="-113"
    unicode-range="U+0020-U+FB02"
  />
<missing-glyph horiz-adv-x="265" 
 />
    <glyph glyph-name="f_i" unicode="fi" horiz-adv-x="515" 
d="M441 678q0 -17 -11.5 -28.5t-28.5 -11.5t-29 11.5t-12 28.5t12 29t29 12t28.5 -12t11.5 -29zM427 0h-54v512h54v-512zM316 721l-18 -46q-38 19 -71 19q-43 0 -57.5 -25.5t-14.5 -80.5v-76h112v-47h-112v-465h-54v465h-73v47h73v84q0 74 30 110t95 36q48 0 90 -21z" />
    <glyph glyph-name="f_l" unicode="fl" horiz-adv-x="548" 
d="M544 -2q-27 -9 -58 -9q-32 0 -54.5 11t-33.5 26t-17 39.5t-7 40.5t-1 41v580h54v-586q0 -56 14 -79.5t53 -23.5q20 0 41 7zM316 721l-18 -46q-38 19 -71 19q-43 0 -57.5 -25.5t-14.5 -80.5v-76h112v-47h-112v-465h-54v465h-73v47h73v84q0 74 30 110t95 36q48 0 90 -21z
" />
    <glyph glyph-name=".notdef" horiz-adv-x="265" 
 />
    <glyph glyph-name=".null" horiz-adv-x="0" 
 />
    <glyph glyph-name="nonmarkingreturn" horiz-adv-x="333" 
 />
    <glyph glyph-name="space" unicode=" " horiz-adv-x="265" 
 />
    <glyph glyph-name="exclam" unicode="!" horiz-adv-x="237" 
d="M149 727l-7 -543h-47l-7 543h61zM170 45q0 -23 -14 -37.5t-38 -14.5q-20 0 -35 15.5t-15 36.5q0 20 15 35t36 15q20 0 35.5 -15t15.5 -35z" />
    <glyph glyph-name="quotedbl" unicode="&#x22;" horiz-adv-x="342" 
d="M288 742l-16 -230h-44l-20 230h80zM133 742l-18 -230h-43l-18 230h79z" />
    <glyph glyph-name="numbersign" unicode="#" horiz-adv-x="646" 
d="M622 461h-147l-49 -195h139v-55h-152l-52 -211h-52l51 211h-152l-52 -211h-52l53 211h-123v55h136l50 195h-129v55h142l52 211h52l-53 -211h152l54 211h52l-53 -211h133v-55zM424 461h-154l-49 -195h153z" />
    <glyph glyph-name="dollar" unicode="$" 
d="M481 196q0 -91 -55.5 -141t-138.5 -55v-124h-53v124q-129 10 -192 124l40 30q48 -92 152 -105v304q-98 27 -141 72.5t-43 120.5q0 73 50 123.5t134 57.5v87h53v-87q119 -13 173 -110l-40 -27q-43 79 -133 88v-282q98 -28 146 -74t48 -126zM234 414v264q-59 -7 -94 -40.5
t-35 -84.5q0 -55 29 -86t100 -53zM424 194q0 56 -34 89.5t-103 55.5v-290q59 7 98 42t39 103z" />
    <glyph glyph-name="percent" unicode="%" horiz-adv-x="823" 
d="M783 196q0 -105 -43 -158t-106 -53q-67 0 -111 52t-44 160q0 107 46.5 160t112.5 53q68 0 106.5 -57.5t38.5 -156.5zM641 742l-403 -757h-55l401 757h57zM344 528q0 -105 -43 -158t-106 -53q-67 0 -111 52t-44 160q0 107 46.5 160t112.5 53q68 0 106.5 -57.5t38.5 -156.5
zM729 196q0 86 -26 125.5t-68 39.5q-49 0 -76 -44.5t-27 -119.5q0 -79 28.5 -121t70.5 -42q48 0 73 42.5t25 119.5zM290 528q0 86 -26 125.5t-68 39.5q-49 0 -76 -44.5t-27 -119.5q0 -79 28.5 -121t70.5 -42q48 0 73 42.5t25 119.5z" />
    <glyph glyph-name="ampersand" unicode="&#x26;" horiz-adv-x="654" 
d="M614 293q-28 -107 -95 -181l87 -112h-71l-55 69q-100 -84 -215 -84q-108 0 -163.5 52.5t-55.5 137.5q0 127 168 229q-87 117 -87 192q0 64 47 105t120 41q75 0 119.5 -38t44.5 -104q0 -53 -39.5 -101t-121.5 -103l189 -245q53 68 76 157zM400 601q0 40 -27.5 65.5
t-77.5 25.5q-47 0 -78.5 -26t-31.5 -67q0 -58 78 -165q81 56 109 91t28 76zM448 109l-202 257q-81 -55 -111.5 -97.5t-30.5 -100.5t45 -95.5t119 -37.5q99 0 180 74z" />
    <glyph glyph-name="quotesingle" unicode="'" horiz-adv-x="213" 
d="M146 742l-18 -220h-43l-18 220h79z" />
    <glyph glyph-name="parenleft" unicode="(" horiz-adv-x="338" 
d="M303 -193h-64q-88 105 -130.5 217t-42.5 250q0 263 173 468h64q-91 -116 -134.5 -227t-43.5 -241q0 -129 43.5 -240.5t134.5 -226.5z" />
    <glyph glyph-name="parenright" unicode=")" horiz-adv-x="338" 
d="M272 274q0 -138 -42.5 -250t-130.5 -217h-64q91 115 134.5 226.5t43.5 240.5q0 130 -43.5 241t-134.5 227h64q173 -205 173 -468z" />
    <glyph glyph-name="asterisk" unicode="*" horiz-adv-x="394" 
d="M368 500l-23 -41l-126 75v-122h-46v122l-125 -76l-22 41l142 78l-141 79l21 40l125 -77v123h46v-123l126 75l22 -39l-139 -78z" />
    <glyph glyph-name="plus" unicode="+" horiz-adv-x="583" 
d="M541 339h-225v-224h-49v224h-225v50h225v225h49v-225h225v-50z" />
    <glyph glyph-name="comma" unicode="," horiz-adv-x="237" 
d="M170 28q0 -80 -63 -181l-30 19q48 70 48 127q-25 0 -41 13.5t-16 36.5q0 22 13.5 37t36.5 15q24 0 38 -17.5t14 -49.5z" />
    <glyph glyph-name="hyphen" unicode="-" horiz-adv-x="386" 
d="M342 228h-298v56h298v-56z" />
    <glyph glyph-name="period" unicode="." horiz-adv-x="237" 
d="M170 45q0 -23 -14 -37.5t-38 -14.5q-20 0 -35 15.5t-15 36.5q0 20 15 35t36 15q20 0 35.5 -15t15.5 -35z" />
    <glyph glyph-name="slash" unicode="/" horiz-adv-x="386" 
d="M376 742l-310 -757h-55l308 757h57z" />
    <glyph glyph-name="zero" unicode="0" 
d="M464 364q0 -197 -47 -288t-158 -91q-112 0 -158.5 90t-46.5 288q0 202 48.5 290.5t156.5 88.5q112 0 158.5 -90t46.5 -288zM409 364q0 66 -3 113t-12.5 90.5t-25.5 69.5t-43 41t-64 15q-90 0 -121 -77t-31 -253q0 -69 3.5 -118t13.5 -91t26.5 -67t43.5 -39t64 -14
q88 0 118.5 77t30.5 253z" />
    <glyph glyph-name="one" unicode="1" 
d="M301 0h-53v631q-82 -55 -153 -68v48q111 33 174 131h32v-742z" />
    <glyph glyph-name="two" unicode="2" 
d="M458 0h-413v49l154 168q115 125 154.5 189t39.5 141q0 63 -36.5 104.5t-103.5 41.5q-56 0 -94.5 -27.5t-74.5 -75.5l-40 33q88 119 211 119q82 0 137.5 -51t55.5 -148q0 -73 -37 -143t-118 -156l-183 -195h348v-49z" />
    <glyph glyph-name="three" unicode="3" 
d="M441 209q0 -102 -54.5 -163t-152.5 -61q-107 0 -189 84l36 38q66 -73 152 -73q73 0 113 46.5t40 128.5q0 156 -162 156h-48v49h49q67 0 109 40t42 106q0 61 -34 97t-94 36q-50 0 -85.5 -17.5t-70.5 -56.5l-37 37q74 86 188 86q86 0 137 -48.5t51 -126.5q0 -71 -31.5 -111
t-91.5 -63q61 -12 97 -58t36 -126z" />
    <glyph glyph-name="four" unicode="4" 
d="M473 183h-70v-198h-55v198h-322v49l341 510h36v-510h70v-49zM348 232v404l-267 -404h267z" />
    <glyph glyph-name="five" unicode="5" 
d="M449 229q0 -110 -54.5 -177t-161.5 -67q-120 0 -185 99l41 32q54 -82 145 -82q78 0 119 54.5t41 138.5q0 88 -42.5 129.5t-112.5 41.5q-67 0 -133 -49h-32l40 378h322v-50h-276l-28 -262q48 32 118 32q91 0 145 -59.5t54 -158.5z" />
    <glyph glyph-name="six" unicode="6" 
d="M468 235q0 -121 -53 -185.5t-142 -64.5q-219 0 -219 345q0 195 66 303.5t183 108.5q90 0 155 -61l-34 -40q-56 52 -120 52q-84 0 -134 -81.5t-59 -214.5q31 22 74.5 39t83.5 17q93 0 146 -56.5t53 -161.5zM413 231q0 173 -151 173q-35 0 -77.5 -18t-74.5 -42
q-1 -21 -1 -32q0 -278 164 -278q65 0 102.5 49.5t37.5 147.5z" />
    <glyph glyph-name="seven" unicode="7" 
d="M457 677l-272 -692h-62l280 692h-369v50h423v-50z" />
    <glyph glyph-name="eight" unicode="8" 
d="M466 183q0 -95 -58 -146.5t-149 -51.5q-96 0 -151.5 53.5t-55.5 141.5q0 138 158 207q-31 17 -47 27.5t-42 34t-38.5 54t-12.5 69.5q0 76 50.5 123t138.5 47t138.5 -47t50.5 -123q0 -37 -12 -67.5t-35 -53t-42.5 -36t-47.5 -28.5q155 -74 155 -204zM393 568
q0 62 -36 93.5t-98 31.5q-64 0 -99 -32.5t-35 -88.5q0 -48 27.5 -84.5t106.5 -75.5q66 31 100 67t34 89zM411 182q0 67 -39 107t-113 72q-74 -31 -113 -72t-39 -108q0 -69 39.5 -108t113.5 -39q72 0 111.5 39t39.5 109z" />
    <glyph glyph-name="nine" unicode="9" 
d="M464 397q0 -196 -64.5 -304t-183.5 -108q-91 0 -156 61l34 40q55 -52 121 -52q87 0 134.5 80.5t57.5 215.5q-31 -22 -75 -39t-86 -17q-91 0 -143.5 56.5t-52.5 161.5q0 119 52.5 184.5t147.5 65.5q48 0 85 -16.5t67 -54.5t46 -107t16 -167zM409 424q0 127 -38.5 198
t-116.5 71q-149 0 -149 -197q0 -173 146 -173q76 0 157 60q1 21 1 41z" />
    <glyph glyph-name="colon" unicode=":" horiz-adv-x="237" 
d="M170 393q0 -23 -14 -37.5t-38 -14.5q-20 0 -35 15.5t-15 36.5q0 20 15 35t36 15q20 0 35.5 -15t15.5 -35zM170 45q0 -23 -14 -37.5t-38 -14.5q-20 0 -35 15.5t-15 36.5q0 20 15 35t36 15q20 0 35.5 -15t15.5 -35z" />
    <glyph glyph-name="semicolon" unicode=";" horiz-adv-x="237" 
d="M170 393q0 -23 -14 -37.5t-38 -14.5q-20 0 -35 15.5t-15 36.5q0 20 15 35t36 15q20 0 35.5 -15t15.5 -35zM170 28q0 -80 -63 -181l-30 19q48 70 48 127q-25 0 -41 13.5t-16 36.5q0 22 13.5 37t36.5 15q24 0 38 -17.5t14 -49.5z" />
    <glyph glyph-name="less" unicode="&#x3c;" horiz-adv-x="583" 
d="M539 115l-495 238v24l495 237v-55l-410 -192v-3l410 -194v-55z" />
    <glyph glyph-name="equal" unicode="=" horiz-adv-x="583" 
d="M539 445h-497v49h497v-49zM539 234h-497v49h497v-49z" />
    <glyph glyph-name="greater" unicode="&#x3e;" horiz-adv-x="583" 
d="M539 352l-495 -237v55l410 192v3l-410 194v55l495 -238v-24z" />
    <glyph glyph-name="question" unicode="?" horiz-adv-x="487" 
d="M421 555q0 -88 -64 -156q-44 -46 -133 -98v-118h-52v144q101 61 123 83q71 66 71 139q0 67 -36.5 104t-97.5 37q-91 0 -149 -77l-42 33q73 96 189 96q86 0 138.5 -51t52.5 -136zM251 45q0 -23 -14 -37.5t-38 -14.5q-20 0 -35 15.5t-15 36.5q0 20 15 35t36 15
q20 0 35.5 -15t15.5 -35z" />
    <glyph glyph-name="at" unicode="@" horiz-adv-x="893" 
d="M854 331q0 -79 -22 -156t-69.5 -133.5t-110.5 -56.5q-85 0 -97 95q-75 -80 -160 -80q-81 0 -119.5 57.5t-38.5 138.5q0 55 15 111t43.5 106.5t77 82t108.5 31.5q71 0 121 -46l27 38h25l-45 -391q-1 -8 -1 -27q0 -67 49 -67q56 0 99 88t43 219q0 162 -75 256.5t-235 94.5
q-174 0 -278.5 -132.5t-104.5 -327.5q0 -164 90.5 -270t261.5 -106q103 0 202 24l9 -49q-103 -24 -214 -24q-101 0 -180 35t-127 95.5t-72.5 136t-24.5 161.5q0 135 52.5 249.5t154.5 185.5t233 71q177 0 270 -109.5t93 -300.5zM589 438q-55 40 -106 40q-61 0 -106.5 -47
t-65 -109t-19.5 -125q0 -69 27.5 -108.5t79.5 -39.5q76 0 155 83z" />
    <glyph glyph-name="A" unicode="A" horiz-adv-x="600" 
d="M582 0h-61l-73 227h-295l-75 -227h-60l246 727h74zM432 276l-130 402l-133 -402h263z" />
    <glyph glyph-name="B" unicode="B" horiz-adv-x="603" 
d="M549 219q0 -219 -280 -219h-174v727h171q136 0 191 -44t55 -130q0 -120 -110 -162q62 -7 104.5 -53.5t42.5 -118.5zM454 548q0 72 -41.5 101t-132.5 29h-130v-272h127q88 0 132.5 36.5t44.5 105.5zM491 210q0 84 -54 115.5t-163 31.5h-124v-308h95q57 0 98.5 7t76.5 24
t53 49.5t18 80.5z" />
    <glyph glyph-name="C" unicode="C" horiz-adv-x="579" 
d="M542 614l-45 -26q-55 104 -164 104q-207 0 -207 -329q0 -166 52 -247t160 -81q79 0 159 58l32 -42q-77 -66 -192 -66q-269 0 -269 378q0 379 266 379q148 0 208 -128z" />
    <glyph glyph-name="D" unicode="D" horiz-adv-x="653" 
d="M585 363q0 -191 -84.5 -277t-259.5 -86h-146v727h144q173 0 259.5 -83t86.5 -281zM527 364q0 175 -70.5 244.5t-210.5 69.5h-96v-629h96q141 0 211 70.5t70 244.5z" />
    <glyph glyph-name="E" unicode="E" horiz-adv-x="557" 
d="M496 0h-401v727h401v-49h-346v-270h314v-49h-314v-310h346v-49z" />
    <glyph glyph-name="F" unicode="F" horiz-adv-x="519" 
d="M490 679h-340v-267h306v-49h-306v-363h-55v727h395v-48z" />
    <glyph glyph-name="G" unicode="G" horiz-adv-x="642" 
d="M560 55q-90 -70 -200 -70q-151 0 -221.5 90.5t-70.5 289.5q0 377 270 377q148 0 209 -128l-45 -25q-56 104 -166 104q-210 0 -210 -325q0 -64 5.5 -112t20.5 -91.5t40 -71t65 -43.5t95 -16q87 0 153 43v217h-156v50h211v-289z" />
    <glyph glyph-name="H" unicode="H" horiz-adv-x="660" 
d="M565 0h-55v351h-360v-351h-55v727h55v-327h360v327h55v-727z" />
    <glyph glyph-name="I" unicode="I" horiz-adv-x="245" 
d="M150 0h-55v727h55v-727z" />
    <glyph glyph-name="J" unicode="J" horiz-adv-x="370" 
d="M290 188q0 -106 -34 -154.5t-125 -48.5q-60 0 -122 31l22 47q45 -29 97 -29q65 0 86 36t21 130v527h55v-539z" />
    <glyph glyph-name="K" unicode="K" horiz-adv-x="584" 
d="M569 0h-65l-228 409l-126 -144v-265h-55v727h55v-386l334 386h69l-241 -276z" />
    <glyph glyph-name="L" unicode="L" horiz-adv-x="490" 
d="M469 0h-374v727h55v-678h319v-49z" />
    <glyph glyph-name="M" unicode="M" horiz-adv-x="764" 
d="M669 0h-55v656l-213 -447h-39l-212 447v-656h-55v727h78l211 -439l210 439h75v-727z" />
    <glyph glyph-name="N" unicode="N" horiz-adv-x="657" 
d="M562 0h-71l-341 660v-660h-55v727h80l332 -638v638h55v-727z" />
    <glyph glyph-name="O" unicode="O" horiz-adv-x="665" 
d="M597 363q0 -378 -265 -378q-264 0 -264 378q0 379 264 379q265 0 265 -379zM539 363q0 166 -50.5 247.5t-156.5 81.5q-105 0 -155.5 -81.5t-50.5 -247.5q0 -165 50.5 -246.5t155.5 -81.5q106 0 156.5 81t50.5 247z" />
    <glyph glyph-name="P" unicode="P" horiz-adv-x="563" 
d="M522 517q0 -111 -61 -164t-198 -53h-113v-300h-55v727h184q243 0 243 -210zM464 519q0 159 -180 159h-134v-329h113q104 0 152.5 36.5t48.5 133.5z" />
    <glyph glyph-name="Q" unicode="Q" horiz-adv-x="665" 
d="M597 363q0 -238 -99 -320l72 -102l-43 -30l-71 101q-54 -27 -124 -27q-264 0 -264 378q0 379 264 379q265 0 265 -379zM539 363q0 166 -50.5 247.5t-156.5 81.5q-105 0 -155.5 -81.5t-50.5 -247.5q0 -165 50.5 -246.5t155.5 -81.5q54 0 94 21l-66 93l43 30l65 -93
q71 80 71 277z" />
    <glyph glyph-name="R" unicode="R" horiz-adv-x="596" 
d="M549 0h-60l-148 321h-191v-321h-55v727h190q121 0 181.5 -50.5t60.5 -156.5q0 -84 -39.5 -128.5t-94.5 -59.5zM469 520q0 158 -174 158h-145v-308h149q170 0 170 150z" />
    <glyph glyph-name="S" unicode="S" horiz-adv-x="545" 
d="M501 191q0 -71 -35 -119t-85 -67.5t-109 -19.5q-156 0 -228 129l44 28q32 -53 75.5 -80t110.5 -27q72 0 120.5 40t48.5 112q0 62 -40.5 99t-121.5 58q-119 31 -175 80t-56 129t59 134.5t164 54.5q143 0 207 -117l-45 -27q-57 94 -162 94q-73 0 -119 -36t-46 -94
q0 -64 38 -97t141 -64q111 -33 162.5 -79t51.5 -131z" />
    <glyph glyph-name="T" unicode="T" horiz-adv-x="547" 
d="M529 675h-228v-675h-55v675h-228v52h511v-52z" />
    <glyph glyph-name="U" unicode="U" horiz-adv-x="622" 
d="M542 272q0 -84 -17 -142t-50 -88.5t-72 -43.5t-92 -13q-52 0 -91.5 13t-72.5 44t-50 88.5t-17 141.5v455h55v-441q0 -135 41.5 -192.5t134.5 -57.5t134.5 57.5t41.5 192.5v441h55v-455z" />
    <glyph glyph-name="V" unicode="V" horiz-adv-x="569" 
d="M551 727l-231 -727h-73l-229 727h60l207 -682l206 682h60z" />
    <glyph glyph-name="W" unicode="W" horiz-adv-x="814" 
d="M630 0h-71l-155 657l-154 -657h-71l-157 727h57l138 -662l153 662h73l153 -667l140 667h56z" />
    <glyph glyph-name="X" unicode="X" horiz-adv-x="569" 
d="M487 0l-203 324l-202 -324h-64l236 369l-230 358h64l197 -315l197 315h64l-232 -357l237 -370h-64z" />
    <glyph glyph-name="Y" unicode="Y" horiz-adv-x="539" 
d="M533 727l-230 -431v-296h-55v294l-242 433h67l202 -372l192 372h66z" />
    <glyph glyph-name="Z" unicode="Z" horiz-adv-x="556" 
d="M516 0h-476v49l402 629h-385v49h449v-49l-403 -629h413v-49z" />
    <glyph glyph-name="bracketleft" unicode="[" horiz-adv-x="287" 
d="M268 -192h-189v919h189v-49h-136v-821h136v-49z" />
    <glyph glyph-name="backslash" unicode="\" horiz-adv-x="386" 
d="M376 -15h-56l-309 757h57z" />
    <glyph glyph-name="bracketright" unicode="]" horiz-adv-x="287" 
d="M208 -192h-189v49h136v821h-136v49h189v-919z" />
    <glyph glyph-name="asciicircum" unicode="^" horiz-adv-x="583" 
d="M515 419h-61l-161 257h-3l-162 -257h-61l206 323h38z" />
    <glyph glyph-name="underscore" unicode="_" horiz-adv-x="500" 
d="M503 -125h-506v50h506v-50z" />
    <glyph glyph-name="grave" unicode="`" horiz-adv-x="300" 
d="M212 603h-44l-147 163h88z" />
    <glyph glyph-name="a" unicode="a" horiz-adv-x="488" 
d="M404 0h-54v55q-89 -70 -171 -70q-63 0 -100 43.5t-37 112.5q0 149 193 170l115 12v36q0 120 -126 120q-74 0 -127 -50l-33 40q54 58 160 58q94 0 137 -43t43 -137v-347zM350 114v162l-86 -9q-36 -4 -62 -10.5t-51.5 -20t-39 -37t-13.5 -57.5q0 -55 24.5 -82t68.5 -27
q41 0 85.5 26t73.5 55z" />
    <glyph glyph-name="b" unicode="b" horiz-adv-x="528" 
d="M472 262q0 -129 -56 -203t-150 -74q-62 0 -128 28l-29 -20h-21v734h54v-264q75 64 143 64q94 0 140.5 -70.5t46.5 -194.5zM416 260q0 104 -33.5 161.5t-96.5 57.5q-64 0 -144 -68v-348q55 -30 129 -30q66 0 105.5 57.5t39.5 169.5z" />
    <glyph glyph-name="c" unicode="c" horiz-adv-x="467" 
d="M424 433l-43 -26q-17 29 -46.5 50.5t-69.5 21.5q-77 0 -115 -59t-38 -165q0 -222 150 -222q59 0 117 41l31 -40q-65 -49 -151 -49q-106 0 -154.5 73.5t-48.5 196.5q0 125 51.5 198.5t151.5 73.5q114 0 165 -94z" />
    <glyph glyph-name="d" unicode="d" horiz-adv-x="528" 
d="M440 0h-54v48q-22 -22 -63.5 -42.5t-76.5 -20.5q-94 0 -142 68t-48 197q0 130 58.5 203.5t155.5 73.5q57 0 116 -24v224h54v-727zM386 103v345q-58 30 -116 30q-69 0 -113.5 -57.5t-44.5 -168.5q0 -219 139 -219q65 0 135 70z" />
    <glyph glyph-name="e" unicode="e" horiz-adv-x="498" 
d="M448 250h-336q0 -93 37 -155t122 -62q67 0 121 46l32 -40q-60 -54 -151 -54q-106 0 -161.5 68.5t-55.5 198.5q0 128 51.5 201.5t154.5 73.5q87 0 136.5 -61t49.5 -163v-53zM392 297q0 90 -35.5 136t-100.5 46q-129 0 -142 -182h278z" />
    <glyph glyph-name="f" unicode="f" horiz-adv-x="285" 
d="M316 721l-18 -46q-38 19 -71 19q-43 0 -57.5 -25.5t-14.5 -80.5v-76h112v-47h-112v-465h-54v465h-73v47h73v84q0 74 30 110t95 36q48 0 90 -21z" />
    <glyph glyph-name="g" unicode="g" horiz-adv-x="524" 
d="M440 5q0 -97 -42.5 -147.5t-149.5 -50.5q-89 0 -156 55l31 42q61 -49 125 -49q78 0 108 32t30 116v50q-69 -64 -143 -64q-94 0 -140.5 72t-46.5 192q0 131 56.5 202.5t153.5 71.5q61 0 124 -28l29 20h21v-514zM386 105v342q-61 32 -119 32q-79 0 -117 -60.5t-38 -163.5
q0 -104 34 -161t97 -57q36 0 76.5 21t66.5 47z" />
    <glyph glyph-name="h" unicode="h" horiz-adv-x="546" 
d="M462 0h-54v310q0 86 -18 125.5t-78 39.5q-69 0 -170 -76v-399h-54v727h54v-275q99 75 176 75t110.5 -48t33.5 -142v-337z" />
    <glyph glyph-name="i" unicode="i" horiz-adv-x="230" 
d="M156 678q0 -17 -11.5 -28.5t-28.5 -11.5t-29 11.5t-12 28.5t12 29t29 12t28.5 -12t11.5 -29zM142 0h-54v512h54v-512z" />
    <glyph glyph-name="j" unicode="j" horiz-adv-x="230" 
d="M156 678q0 -17 -11.5 -28.5t-28.5 -11.5t-29 11.5t-12 28.5t12 29t29 12t28.5 -12t11.5 -29zM142 -31q0 -82 -26.5 -122t-97.5 -40q-48 0 -95 15l15 49q46 -16 75 -16q44 0 59.5 27t15.5 99v531h54v-543z" />
    <glyph glyph-name="k" unicode="k" horiz-adv-x="469" 
d="M454 0h-64l-172 268l-76 -82v-186h-54v727h54v-473l231 258h71l-191 -208z" />
    <glyph glyph-name="l" unicode="l" horiz-adv-x="263" 
d="M259 -2q-25 -9 -65 -9q-63 0 -84.5 35t-21.5 123v580h54v-586q0 -62 12 -82.5t50 -20.5q22 0 46 7z" />
    <glyph glyph-name="m" unicode="m" horiz-adv-x="838" 
d="M754 0h-54v310q0 90 -18.5 127.5t-72.5 37.5q-35 0 -83 -25t-82 -55q4 -25 4 -58v-337h-54v310q0 90 -18.5 127.5t-73.5 37.5q-28 0 -74.5 -22t-85.5 -54v-399h-54v512h54v-60q42 35 87.5 55t79.5 20q98 0 126 -87q37 34 87.5 60.5t94.5 26.5q137 0 137 -190v-337z" />
    <glyph glyph-name="n" unicode="n" horiz-adv-x="546" 
d="M462 0h-54v310q0 86 -18 125.5t-78 39.5q-69 0 -170 -76v-399h-54v512h54v-60q99 75 176 75t110.5 -48t33.5 -142v-337z" />
    <glyph glyph-name="o" unicode="o" horiz-adv-x="513" 
d="M457 255q0 -129 -53 -199.5t-143 -70.5q-98 0 -151.5 69.5t-53.5 200.5q0 132 53.5 202t147.5 70t147 -70.5t53 -201.5zM401 255q0 96 -34.5 160t-109.5 64q-76 0 -110.5 -64t-34.5 -160t35 -159t113 -63q72 0 106.5 64t34.5 158z" />
    <glyph glyph-name="p" unicode="p" horiz-adv-x="528" 
d="M472 270q0 -133 -56 -209t-154 -76q-62 0 -120 24v-202h-54v705h54v-48q73 63 148 63q95 0 138.5 -69.5t43.5 -187.5zM416 272q0 207 -130 207q-61 0 -144 -67v-349q54 -30 119 -30q67 0 111 61.5t44 177.5z" />
    <glyph glyph-name="q" unicode="q" horiz-adv-x="528" 
d="M440 -193h-54v242q-26 -25 -64 -44.5t-79 -19.5q-94 0 -140.5 72.5t-46.5 192.5q0 133 56 205t154 72q59 0 124 -28l29 20h21v-712zM386 101v346q-53 32 -119 32q-72 0 -113.5 -58t-41.5 -169q0 -104 34 -161.5t98 -57.5q68 0 142 68z" />
    <glyph glyph-name="r" unicode="r" horiz-adv-x="343" 
d="M328 510l-17 -48q-12 6 -30 6q-22 0 -48.5 -16t-45 -33t-45.5 -46v-373h-54v512h54v-87q42 47 75 71t68 24q24 0 43 -10z" />
    <glyph glyph-name="s" unicode="s" horiz-adv-x="443" 
d="M399 141q0 -70 -47.5 -113t-127.5 -43q-123 0 -180 88l42 29q46 -69 139 -69q56 0 87 29.5t31 71.5q0 41 -25.5 63t-90.5 37q-86 20 -127.5 54t-41.5 98q0 67 47 104t123 37q45 0 89.5 -20t71.5 -63l-41 -30q-20 30 -53 47.5t-68 17.5q-49 0 -81 -22t-32 -65
q0 -46 29.5 -67.5t101.5 -38.5q77 -17 115.5 -51t38.5 -94z" />
    <glyph glyph-name="t" unicode="t" horiz-adv-x="325" 
d="M302 0q-45 -15 -80 -15q-66 0 -93.5 34t-27.5 118v328h-91v47h91v175h54v-175h127v-47h-127v-321q0 -56 12.5 -83.5t54.5 -27.5q29 0 66 15z" />
    <glyph glyph-name="u" unicode="u" horiz-adv-x="546" 
d="M458 0h-54v60q-99 -75 -176 -75t-110.5 48t-33.5 142v337h54v-310q0 -86 18 -125.5t78 -39.5q69 0 170 76v399h54v-512z" />
    <glyph glyph-name="v" unicode="v" horiz-adv-x="458" 
d="M439 512l-180 -512h-61l-179 512h60l151 -444l150 444h59z" />
    <glyph glyph-name="w" unicode="w" horiz-adv-x="655" 
d="M632 512l-122 -512h-53l-130 437l-125 -437h-55l-124 512h58l96 -422l122 422h58l123 -422l96 422h56z" />
    <glyph glyph-name="x" unicode="x" horiz-adv-x="442" 
d="M422 0h-69l-134 214l-140 -214h-59l169 254l-167 258h66l134 -214l139 214h61l-170 -253z" />
    <glyph glyph-name="y" unicode="y" horiz-adv-x="470" 
d="M451 512l-213 -568q-29 -76 -68.5 -106.5t-97.5 -30.5q-47 0 -76 13l16 48q31 -13 69 -13q72 0 108 101l20 57l-190 499h61l157 -424l156 424h58z" />
    <glyph glyph-name="z" unicode="z" horiz-adv-x="436" 
d="M403 0h-369v47l297 418h-291v47h355v-47l-295 -418h303v-47z" />
    <glyph glyph-name="braceleft" unicode="{" horiz-adv-x="392" 
d="M358 -193h-10q-163 0 -163 182v62q0 92 -31.5 144t-107.5 54v47q77 1 108 52.5t31 146.5v65q0 182 163 182h10v-47q-68 0 -94.5 -33t-26.5 -102v-87q0 -168 -118 -201q118 -37 118 -200v-83q0 -69 26.5 -102t94.5 -33v-47z" />
    <glyph glyph-name="bar" unicode="|" horiz-adv-x="294" 
d="M173 -193h-52v935h52v-935z" />
    <glyph glyph-name="braceright" unicode="}" horiz-adv-x="392" 
d="M346 249q-77 -1 -108 -52t-31 -146v-62q0 -182 -163 -182h-10v47q68 0 94.5 33t26.5 102v84q0 168 118 201q-118 37 -118 200v86q0 69 -26.5 102t-94.5 33v47h10q163 0 163 -182v-65q0 -93 31.5 -145t107.5 -54v-47z" />
    <glyph glyph-name="asciitilde" unicode="~" horiz-adv-x="583" 
d="M533 349q-57 -48 -125 -48q-62 0 -126 37q-66 37 -111 37q-61 0 -121 -64v65q57 48 125 48q60 0 123 -36q64 -38 114 -38q61 0 121 64v-65z" />
    <glyph glyph-name="uni00A0" unicode="&#xa0;" horiz-adv-x="265" 
 />
    <glyph glyph-name="exclamdown" unicode="&#xa1;" horiz-adv-x="237" 
d="M170 475q0 -20 -15 -35t-36 -15q-20 0 -35.5 15t-15.5 35q0 23 14 37.5t38 14.5q20 0 35 -15.5t15 -36.5zM150 -193h-61l7 529h47z" />
    <glyph glyph-name="cent" unicode="&#xa2;" 
d="M442 433l-41 -26q-13 27 -40 48t-65 24v-446q57 4 103 41l30 -39q-52 -44 -133 -49v-149h-49v147q-171 26 -171 271q0 114 43.5 186t127.5 87v147h49v-149q101 -7 146 -93zM247 33v446q-115 -33 -115 -224q0 -196 115 -222z" />
    <glyph glyph-name="sterling" unicode="&#xa3;" 
d="M494 0h-451v47q50 25 75 91t25 128q0 25 -3 50h-94v47h86q-1 9 -17 68q-24 89 -24 134q0 83 56 130t142 47q136 0 204 -102l-39 -30q-36 45 -73.5 65t-91.5 20q-70 0 -106.5 -35t-36.5 -89q0 -47 24 -138q2 -8 6 -22t7 -25.5t5 -21.5h174v-47h-167q3 -27 3 -47
q0 -146 -94 -223h390v-47z" />
    <glyph glyph-name="currency" unicode="&#xa4;" horiz-adv-x="572" 
d="M434 237l68 -64l-32 -33l-66 67q-52 -42 -118 -42q-68 0 -118 42l-66 -67l-32 33l67 64q-40 54 -40 117q0 71 40 117l-67 65l32 33l66 -67q54 41 118 41q69 0 117 -41l67 67l32 -33l-68 -65q41 -51 41 -117q0 -63 -41 -117zM430 355q0 62 -43.5 102.5t-99.5 40.5
q-62 0 -103.5 -42.5t-41.5 -100.5q0 -59 42.5 -102t101.5 -43t101.5 43t42.5 102z" />
    <glyph glyph-name="yen" unicode="&#xa5;" 
d="M494 727l-169 -344h144v-47h-167l-19 -40v-55h186v-47h-186v-194h-53v194h-185v47h185v53l-21 42h-164v47h141l-169 344h65l174 -374l174 374h64z" />
    <glyph glyph-name="brokenbar" unicode="&#xa6;" horiz-adv-x="294" 
d="M173 431h-52v311h52v-311zM173 -193h-52v311h52v-311z" />
    <glyph glyph-name="section" unicode="&#xa7;" horiz-adv-x="481" 
d="M440 269q0 -91 -126 -172q42 -29 67 -68.5t25 -82.5q0 -66 -48 -102.5t-115 -36.5q-122 0 -183 70l41 33q53 -56 136 -56q46 0 80 22.5t34 72.5q0 70 -132 148l-32 19q-146 86 -146 186q0 96 126 175q-92 59 -92 137q0 59 49.5 93.5t119.5 34.5q113 0 176 -72l-37 -31
q-51 56 -137 56q-44 0 -80 -20t-36 -61q0 -20 9 -38t30 -35.5t36 -28t46.5 -29t42.5 -25.5q45 -29 72 -51t50.5 -59.5t23.5 -78.5zM385 270q0 32 -14.5 54t-50.5 51q-33 25 -112 74q-63 -44 -87.5 -74t-24.5 -78q0 -36 40.5 -76.5t136.5 -95.5q27 18 40 28t33.5 29.5
t29.5 41t9 46.5z" />
    <glyph glyph-name="dieresis" unicode="&#xa8;" horiz-adv-x="300" 
d="M272 674q0 -17 -12 -28.5t-29 -11.5t-28.5 12t-11.5 28q0 17 11.5 29t28.5 12t29 -12t12 -29zM108 674q0 -17 -12 -28.5t-29 -11.5t-28.5 12t-11.5 28q0 17 11.5 29t28.5 12t29 -12t12 -29z" />
    <glyph glyph-name="copyright" unicode="&#xa9;" horiz-adv-x="939" 
d="M889 321q0 -175 -122.5 -298t-296.5 -123t-297 123t-123 296q0 175 122.5 298t296.5 123q175 0 297.5 -123t122.5 -296zM847 321q0 155 -111 266t-266 111q-156 0 -267 -111t-111 -266q0 -157 110.5 -268t266.5 -111t267 111t111 268zM631 477l-36 -25q-13 25 -41.5 43.5
t-70.5 18.5q-147 0 -147 -189q0 -83 33.5 -133.5t108.5 -50.5q54 0 116 40l25 -36q-20 -18 -58.5 -34.5t-85.5 -16.5q-93 0 -142 63t-49 168q0 104 51 170t144 66q104 0 152 -84z" />
    <glyph glyph-name="ordfeminine" unicode="&#xaa;" horiz-adv-x="370" 
d="M307 399h-53v34q-57 -43 -117 -43q-48 0 -75.5 28.5t-27.5 72.5q0 96 131 107l89 8v21q0 40 -20.5 56t-59.5 16q-57 0 -95 -29l-31 34q51 38 127 38q69 0 100.5 -26.5t31.5 -88.5v-228zM254 473v100l-57 -6q-57 -6 -82.5 -21t-25.5 -55q0 -31 15.5 -46t41.5 -15
q49 0 108 43z" />
    <glyph glyph-name="guillemotleft" unicode="&#xab;" horiz-adv-x="500" 
d="M480 26h-68l-172 230l172 230h68l-174 -230zM260 26h-68l-172 230l172 230h68l-174 -230z" />
    <glyph glyph-name="logicalnot" unicode="&#xac;" horiz-adv-x="583" 
d="M540 232h-49v205h-448v49h497v-254z" />
    <glyph glyph-name="registered" unicode="&#xae;" horiz-adv-x="939" 
d="M889 321q0 -175 -122.5 -298t-296.5 -123t-297 123t-123 296q0 175 122.5 298t296.5 123q175 0 297.5 -123t122.5 -296zM847 321q0 155 -111 266t-266 111q-156 0 -267 -111t-111 -266q0 -157 110.5 -268t266.5 -111t267 111t111 268zM650 108h-58l-96 184h-125v-184h-50
v442h143q168 0 168 -125q0 -97 -87 -123zM580 424q0 83 -115 83h-94v-172h97q60 0 86 22t26 67z" />
    <glyph glyph-name="macron" unicode="&#xaf;" horiz-adv-x="300" 
d="M275 657h-250v54h250v-54z" />
    <glyph glyph-name="degree" unicode="&#xb0;" horiz-adv-x="393" 
d="M332 607q0 -56 -39.5 -96t-95.5 -40t-96 39.5t-40 95.5t39.5 96t95.5 40t96 -39.5t40 -95.5zM285 606q0 35 -26.5 62t-61.5 27q-36 0 -62.5 -27t-26.5 -61q0 -35 26.5 -62t62.5 -27q35 0 61.5 26.5t26.5 61.5z" />
    <glyph glyph-name="plusminus" unicode="&#xb1;" horiz-adv-x="583" 
d="M540 339h-224v-207h-49v207h-224v49h224v207h49v-207h224v-49zM540 0h-497v49h497v-49z" />
    <glyph glyph-name="two.superior" unicode="&#xb2;" horiz-adv-x="365" 
d="M319 329h-275v45l106 95q76 68 94 92.5t18 65.5q0 28 -20.5 49t-60.5 21q-35 0 -56 -14t-44 -42l-34 27q53 74 137 74q57 0 93 -32.5t36 -87.5q0 -46 -25 -80.5t-78 -80.5l-98 -87h207v-45z" />
    <glyph glyph-name="three.superior" unicode="&#xb3;" horiz-adv-x="365" 
d="M321 444q0 -59 -37 -93t-97 -34q-79 0 -133 58l34 34q51 -47 97 -47q40 0 62.5 22t22.5 59q0 36 -23.5 55t-65.5 19h-45v45h47q34 0 56.5 19t22.5 51q0 31 -19 48t-54 17q-48 0 -96 -48l-31 36q49 57 124 57q60 0 93.5 -28.5t33.5 -79.5q0 -32 -16.5 -56.5t-42.5 -35.5
q67 -24 67 -98z" />
    <glyph glyph-name="acute" unicode="&#xb4;" horiz-adv-x="300" 
d="M279 766l-147 -163h-44l103 163h88z" />
    <glyph glyph-name="mu" unicode="&#xb5;" horiz-adv-x="546" 
d="M473 0h-53q0 15 -0.5 45.5t-0.5 46.5h-1q-46 -102 -151 -103q-87 0 -128 69h-2v-249h-53v691h53v-277q0 -88 34 -138t102 -50q66 0 106.5 54.5t40.5 132.5v278h53v-500z" />
    <glyph glyph-name="paragraph" unicode="&#xb6;" horiz-adv-x="523" 
d="M503 680h-82v-873h-54v873h-83v-873h-54v508q-92 0 -151 53t-59 154q0 94 63.5 149.5t170.5 55.5h249v-47z" />
    <glyph glyph-name="periodcentered" unicode="&#xb7;" horiz-adv-x="237" 
d="M170 365q0 -23 -14 -37.5t-38 -14.5q-20 0 -35 15.5t-15 36.5q0 20 15 35t36 15q20 0 35.5 -15t15.5 -35z" />
    <glyph glyph-name="cedilla" unicode="&#xb8;" horiz-adv-x="300" 
d="M253 -112q0 -39 -29 -60.5t-79 -21.5q-47 0 -96 18l14 38q52 -15 79 -15q67 0 67 43q0 7 -2 13t-6 10.5t-8.5 8t-12 6t-13 4t-15.5 2.5t-16 1.5t-17 1.5t-16 1l36 72h43l-23 -45q94 -12 94 -77z" />
    <glyph glyph-name="one.superior" unicode="&#xb9;" horiz-adv-x="365" 
d="M203 329h-49v337q-41 -23 -98 -34v38q71 15 119 72h28v-413z" />
    <glyph glyph-name="ordmasculine" unicode="&#xba;" horiz-adv-x="383" 
d="M334 563q0 -89 -42.5 -131t-105.5 -42q-64 0 -107 42t-43 132q0 94 43.5 136t107.5 42q63 0 105 -44t42 -135zM279 563q0 136 -91 136q-97 0 -97 -135q0 -131 95 -131q93 0 93 130z" />
    <glyph glyph-name="guillemotright" unicode="&#xbb;" horiz-adv-x="500" 
d="M480 256l-172 -230h-68l174 230l-174 230h68zM260 256l-172 -230h-68l174 230l-174 230h68z" />
    <glyph glyph-name="onequarter" unicode="&#xbc;" horiz-adv-x="844" 
d="M739 91h-39v-106h-46v106h-195v43l210 276h31v-276h39v-43zM615 742l-403 -757h-55l401 757h57zM203 329h-49v337q-41 -23 -98 -34v38q71 15 119 72h28v-413zM654 322l-143 -188h142z" />
    <glyph glyph-name="onehalf" unicode="&#xbd;" horiz-adv-x="844" 
d="M798 -1h-275v45l106 95q76 68 94 92.5t18 65.5q0 28 -20.5 49t-60.5 21q-35 0 -56 -14t-44 -42l-34 27q53 74 137 74q57 0 93 -32.5t36 -87.5q0 -46 -25 -80.5t-78 -80.5l-98 -87h207v-45zM615 742l-403 -757h-55l401 757h57zM203 329h-49v337q-41 -23 -98 -34v38
q71 15 119 72h28v-413z" />
    <glyph glyph-name="threequarters" unicode="&#xbe;" horiz-adv-x="844" 
d="M739 91h-39v-106h-46v106h-195v43l210 276h31v-276h39v-43zM655 742l-403 -757h-55l401 757h57zM321 444q0 -59 -37 -93t-97 -34q-79 0 -133 58l34 34q51 -47 97 -47q40 0 62.5 22t22.5 59q0 36 -23.5 55t-65.5 19h-45v45h47q34 0 56.5 19t22.5 51q0 31 -19 48t-54 17
q-48 0 -96 -48l-31 36q49 57 124 57q60 0 93.5 -28.5t33.5 -79.5q0 -32 -16.5 -56.5t-42.5 -35.5q67 -24 67 -98zM654 322l-143 -188h142z" />
    <glyph glyph-name="questiondown" unicode="&#xbf;" horiz-adv-x="487" 
d="M338 475q0 -20 -15 -35t-36 -15q-20 0 -35.5 15t-15.5 35q0 23 14 37.5t38 14.5q20 0 35 -15.5t15 -36.5zM446 -97q-73 -96 -189 -96q-86 0 -138.5 51t-52.5 136q0 88 64 156q44 46 133 98v99h52v-125q-101 -61 -123 -83q-71 -66 -71 -139q0 -67 36.5 -104t97.5 -37
q91 0 149 77z" />
    <glyph glyph-name="Agrave" unicode="&#xc0;" horiz-adv-x="600" 
d="M345 782h-44l-147 163h88zM582 0h-61l-73 227h-295l-75 -227h-60l246 727h74zM432 276l-130 402l-133 -402h263z" />
    <glyph glyph-name="Aacute" unicode="&#xc1;" horiz-adv-x="600" 
d="M435 945l-147 -163h-44l103 163h88zM582 0h-61l-73 227h-295l-75 -227h-60l246 727h74zM432 276l-130 402l-133 -402h263z" />
    <glyph glyph-name="Acircumflex" unicode="&#xc2;" horiz-adv-x="600" 
d="M449 782h-47l-102 125l-102 -125h-47l119 163h61zM582 0h-61l-73 227h-295l-75 -227h-60l246 727h74zM432 276l-130 402l-133 -402h263z" />
    <glyph glyph-name="Atilde" unicode="&#xc3;" horiz-adv-x="600" 
d="M461 916q0 -47 -20 -80.5t-68 -33.5q-35 0 -78 35q-5 4 -15.5 13.5t-16 14t-15.5 8.5t-21 4q-25 0 -37.5 -23t-12.5 -52h-38q0 47 20 80.5t68 33.5q39 0 79 -37q2 -1 11 -10t12.5 -11.5t11.5 -7.5t15.5 -7t16.5 -2q25 0 37.5 23t12.5 52h38zM582 0h-61l-73 227h-295
l-75 -227h-60l246 727h74zM432 276l-130 402l-133 -402h263z" />
    <glyph glyph-name="Adieresis" unicode="&#xc4;" horiz-adv-x="600" 
d="M422 853q0 -17 -12 -28.5t-29 -11.5t-28.5 11.5t-11.5 28.5t11.5 29t28.5 12t29 -12t12 -29zM258 853q0 -17 -12 -28.5t-29 -11.5t-28.5 11.5t-11.5 28.5t11.5 29t28.5 12t29 -12t12 -29zM582 0h-61l-73 227h-295l-75 -227h-60l246 727h74zM432 276l-130 402l-133 -402
h263z" />
    <glyph glyph-name="Aring" unicode="&#xc5;" horiz-adv-x="600" 
d="M396 862q0 -40 -28.5 -68t-68.5 -28t-68 28t-28 68t28 68.5t68 28.5t68.5 -28.5t28.5 -68.5zM582 0h-61l-73 227h-295l-75 -227h-60l246 727h74zM361 862q0 26 -18.5 44t-43.5 18t-43 -18t-18 -44t18 -43.5t43 -17.5q26 0 44 18t18 43zM432 276l-130 402l-133 -402h263z
" />
    <glyph glyph-name="AE" unicode="&#xc6;" horiz-adv-x="839" 
d="M778 0h-381v227h-237l-96 -227h-60l309 727h465v-49h-326v-270h294v-49h-294v-310h326v-49zM397 276v402h-46l-170 -402h216z" />
    <glyph glyph-name="Ccedilla" unicode="&#xc7;" horiz-adv-x="579" 
d="M542 614l-45 -26q-55 104 -164 104q-207 0 -207 -329q0 -166 52 -247t160 -81q79 0 159 58l32 -42q-77 -66 -192 -66h-11l-10 -20q94 -12 94 -77q0 -39 -29 -60.5t-79 -21.5q-46 0 -96 18l14 38q52 -15 79 -15q67 0 67 43q0 7 -2 13t-6 10.5t-8.5 8t-12 6t-13 4
t-15.5 2.5t-16 1.5t-17 1.5t-16 1l25 51q-217 33 -217 374q0 379 266 379q148 0 208 -128z" />
    <glyph glyph-name="Egrave" unicode="&#xc8;" horiz-adv-x="557" 
d="M354 782h-44l-147 163h88zM496 0h-401v727h401v-49h-346v-270h314v-49h-314v-310h346v-49z" />
    <glyph glyph-name="Eacute" unicode="&#xc9;" horiz-adv-x="557" 
d="M434 945l-147 -163h-44l103 163h88zM496 0h-401v727h401v-49h-346v-270h314v-49h-314v-310h346v-49z" />
    <glyph glyph-name="Ecircumflex" unicode="&#xca;" horiz-adv-x="557" 
d="M447 782h-47l-102 125l-102 -125h-47l119 163h61zM496 0h-401v727h401v-49h-346v-270h314v-49h-314v-310h346v-49z" />
    <glyph glyph-name="Edieresis" unicode="&#xcb;" horiz-adv-x="557" 
d="M425 853q0 -17 -12 -28.5t-29 -11.5q-16 0 -28 11.5t-12 28.5t11.5 29t28.5 12t29 -12t12 -29zM261 853q0 -17 -12 -28.5t-29 -11.5q-16 0 -28 11.5t-12 28.5t11.5 29t28.5 12t29 -12t12 -29zM496 0h-401v727h401v-49h-346v-270h314v-49h-314v-310h346v-49z" />
    <glyph glyph-name="Igrave" unicode="&#xcc;" horiz-adv-x="245" 
d="M168 782h-44l-147 163h88zM150 0h-55v727h55v-727z" />
    <glyph glyph-name="Iacute" unicode="&#xcd;" horiz-adv-x="245" 
d="M258 945l-147 -163h-44l103 163h88zM150 0h-55v727h55v-727z" />
    <glyph glyph-name="Icircumflex" unicode="&#xce;" horiz-adv-x="245" 
d="M272 782h-47l-102 125l-102 -125h-47l119 163h61zM150 0h-55v727h55v-727z" />
    <glyph glyph-name="Idieresis" unicode="&#xcf;" horiz-adv-x="245" 
d="M245 853q0 -17 -12 -28.5t-29 -11.5q-16 0 -28 11.5t-12 28.5t11.5 29t28.5 12t29 -12t12 -29zM81 853q0 -17 -12 -28.5t-29 -11.5q-16 0 -28 11.5t-12 28.5t11.5 29t28.5 12t29 -12t12 -29zM150 0h-55v727h55v-727z" />
    <glyph glyph-name="Eth" unicode="&#xd0;" horiz-adv-x="653" 
d="M585 363q0 -191 -84.5 -277t-259.5 -86h-146v343h-74v49h74v335h144q173 0 259.5 -83t86.5 -281zM527 364q0 175 -70.5 244.5t-210.5 69.5h-96v-286h180v-49h-180v-294h96q141 0 211 70.5t70 244.5z" />
    <glyph glyph-name="Ntilde" unicode="&#xd1;" horiz-adv-x="657" 
d="M499 916q0 -47 -20 -80.5t-68 -33.5q-35 0 -78 35q-5 4 -15.5 13.5t-16 14t-15.5 8.5t-21 4q-25 0 -37.5 -23t-12.5 -52h-38q0 47 20 80.5t68 33.5q39 0 79 -37q2 -1 11 -10t12.5 -11.5t11.5 -7.5t15.5 -7t16.5 -2q25 0 37.5 23t12.5 52h38zM562 0h-71l-341 660v-660h-55
v727h80l332 -638v638h55v-727z" />
    <glyph glyph-name="Ograve" unicode="&#xd2;" horiz-adv-x="665" 
d="M398 782h-44l-147 163h88zM597 363q0 -378 -265 -378q-264 0 -264 378q0 379 264 379q265 0 265 -379zM539 363q0 166 -50.5 247.5t-156.5 81.5q-105 0 -155.5 -81.5t-50.5 -247.5q0 -165 50.5 -246.5t155.5 -81.5q106 0 156.5 81t50.5 247z" />
    <glyph glyph-name="Oacute" unicode="&#xd3;" horiz-adv-x="665" 
d="M478 945l-147 -163h-44l103 163h88zM597 363q0 -378 -265 -378q-264 0 -264 378q0 379 264 379q265 0 265 -379zM539 363q0 166 -50.5 247.5t-156.5 81.5q-105 0 -155.5 -81.5t-50.5 -247.5q0 -165 50.5 -246.5t155.5 -81.5q106 0 156.5 81t50.5 247z" />
    <glyph glyph-name="Ocircumflex" unicode="&#xd4;" horiz-adv-x="665" 
d="M481 782h-47l-102 125l-102 -125h-47l119 163h61zM597 363q0 -378 -265 -378q-264 0 -264 378q0 379 264 379q265 0 265 -379zM539 363q0 166 -50.5 247.5t-156.5 81.5q-105 0 -155.5 -81.5t-50.5 -247.5q0 -165 50.5 -246.5t155.5 -81.5q106 0 156.5 81t50.5 247z" />
    <glyph glyph-name="Otilde" unicode="&#xd5;" horiz-adv-x="665" 
d="M493 916q0 -47 -20 -80.5t-68 -33.5q-35 0 -78 35q-5 4 -15.5 13.5t-16 14t-15.5 8.5t-21 4q-25 0 -37.5 -23t-12.5 -52h-38q0 47 20 80.5t68 33.5q39 0 79 -37q2 -1 11 -10t12.5 -11.5t11.5 -7.5t15.5 -7t16.5 -2q25 0 37.5 23t12.5 52h38zM597 363q0 -378 -265 -378
q-264 0 -264 378q0 379 264 379q265 0 265 -379zM539 363q0 166 -50.5 247.5t-156.5 81.5q-105 0 -155.5 -81.5t-50.5 -247.5q0 -165 50.5 -246.5t155.5 -81.5q106 0 156.5 81t50.5 247z" />
    <glyph glyph-name="Odieresis" unicode="&#xd6;" horiz-adv-x="665" 
d="M455 853q0 -17 -12 -28.5t-29 -11.5q-16 0 -28 11.5t-12 28.5t11.5 29t28.5 12t29 -12t12 -29zM291 853q0 -17 -12 -28.5t-29 -11.5q-16 0 -28 11.5t-12 28.5t11.5 29t28.5 12t29 -12t12 -29zM597 363q0 -378 -265 -378q-264 0 -264 378q0 379 264 379q265 0 265 -379z
M539 363q0 166 -50.5 247.5t-156.5 81.5q-105 0 -155.5 -81.5t-50.5 -247.5q0 -165 50.5 -246.5t155.5 -81.5q106 0 156.5 81t50.5 247z" />
    <glyph glyph-name="multiply" unicode="&#xd7;" horiz-adv-x="583" 
d="M492 198l-34 -34l-166 166l-167 -166l-34 34l166 167l-166 166l34 34l167 -166l166 166l34 -34l-166 -166z" />
    <glyph glyph-name="Oslash" unicode="&#xd8;" horiz-adv-x="665" 
d="M597 363q0 -378 -265 -378q-95 0 -154 47l-48 -88h-55l67 123q-74 94 -74 296q0 379 264 379q93 0 154 -47l38 69h57l-58 -105q74 -94 74 -296zM459 646q-47 46 -127 46q-105 0 -155.5 -81.5t-50.5 -247.5q0 -159 46 -241zM539 363q0 160 -46 240l-288 -523
q48 -45 127 -45q106 0 156.5 81t50.5 247z" />
    <glyph glyph-name="Ugrave" unicode="&#xd9;" horiz-adv-x="622" 
d="M366 782h-44l-147 163h88zM542 272q0 -84 -17 -142t-50 -88.5t-72 -43.5t-92 -13q-52 0 -91.5 13t-72.5 44t-50 88.5t-17 141.5v455h55v-441q0 -135 41.5 -192.5t134.5 -57.5t134.5 57.5t41.5 192.5v441h55v-455z" />
    <glyph glyph-name="Uacute" unicode="&#xda;" horiz-adv-x="622" 
d="M456 945l-147 -163h-44l103 163h88zM542 272q0 -84 -17 -142t-50 -88.5t-72 -43.5t-92 -13q-52 0 -91.5 13t-72.5 44t-50 88.5t-17 141.5v455h55v-441q0 -135 41.5 -192.5t134.5 -57.5t134.5 57.5t41.5 192.5v441h55v-455z" />
    <glyph glyph-name="Ucircumflex" unicode="&#xdb;" horiz-adv-x="622" 
d="M460 782h-47l-102 125l-102 -125h-47l119 163h61zM542 272q0 -84 -17 -142t-50 -88.5t-72 -43.5t-92 -13q-52 0 -91.5 13t-72.5 44t-50 88.5t-17 141.5v455h55v-441q0 -135 41.5 -192.5t134.5 -57.5t134.5 57.5t41.5 192.5v441h55v-455z" />
    <glyph glyph-name="Udieresis" unicode="&#xdc;" horiz-adv-x="622" 
d="M433 853q0 -17 -12 -28.5t-29 -11.5q-16 0 -28 11.5t-12 28.5t11.5 29t28.5 12t29 -12t12 -29zM269 853q0 -17 -12 -28.5t-29 -11.5q-16 0 -28 11.5t-12 28.5t11.5 29t28.5 12t29 -12t12 -29zM542 272q0 -84 -17 -142t-50 -88.5t-72 -43.5t-92 -13q-52 0 -91.5 13
t-72.5 44t-50 88.5t-17 141.5v455h55v-441q0 -135 41.5 -192.5t134.5 -57.5t134.5 57.5t41.5 192.5v441h55v-455z" />
    <glyph glyph-name="Yacute" unicode="&#xdd;" horiz-adv-x="539" 
d="M425 945l-147 -163h-44l103 163h88zM533 727l-230 -431v-296h-55v294l-242 433h67l202 -372l192 372h66z" />
    <glyph glyph-name="Thorn" unicode="&#xde;" horiz-adv-x="563" 
d="M522 379q0 -111 -61 -164t-198 -53h-113v-162h-55v727h55v-138h129q243 0 243 -210zM464 381q0 159 -180 159h-134v-329h113q104 0 152.5 36.5t48.5 133.5z" />
    <glyph glyph-name="germandbls" unicode="&#xdf;" horiz-adv-x="542" 
d="M486 201q0 -56 -18.5 -103t-65.5 -80.5t-117 -33.5q-23 0 -65 5v47q24 -5 62 -5q70 0 108 46.5t38 122.5q0 102 -48 142.5t-147 41.5v46q145 3 145 146q0 54 -28.5 86.5t-80.5 32.5q-127 0 -127 -185v-510h-54v510q0 106 44 169t138 63q80 0 121.5 -46t41.5 -121
q0 -61 -32.5 -105.5t-91.5 -57.5v-2q92 -6 134.5 -62t42.5 -147z" />
    <glyph glyph-name="agrave" unicode="&#xe0;" horiz-adv-x="488" 
d="M289 603h-44l-147 163h88zM404 0h-54v55q-89 -70 -171 -70q-63 0 -100 43.5t-37 112.5q0 149 193 170l115 12v36q0 120 -126 120q-74 0 -127 -50l-33 40q54 58 160 58q94 0 137 -43t43 -137v-347zM350 114v162l-86 -9q-36 -4 -62 -10.5t-51.5 -20t-39 -37t-13.5 -57.5
q0 -55 24.5 -82t68.5 -27q41 0 85.5 26t73.5 55z" />
    <glyph glyph-name="aacute" unicode="&#xe1;" horiz-adv-x="488" 
d="M369 766l-147 -163h-44l103 163h88zM404 0h-54v55q-89 -70 -171 -70q-63 0 -100 43.5t-37 112.5q0 149 193 170l115 12v36q0 120 -126 120q-74 0 -127 -50l-33 40q54 58 160 58q94 0 137 -43t43 -137v-347zM350 114v162l-86 -9q-36 -4 -62 -10.5t-51.5 -20t-39 -37
t-13.5 -57.5q0 -55 24.5 -82t68.5 -27q41 0 85.5 26t73.5 55z" />
    <glyph glyph-name="acircumflex" unicode="&#xe2;" horiz-adv-x="488" 
d="M383 603h-47l-102 125l-102 -125h-47l119 163h61zM404 0h-54v55q-89 -70 -171 -70q-63 0 -100 43.5t-37 112.5q0 149 193 170l115 12v36q0 120 -126 120q-74 0 -127 -50l-33 40q54 58 160 58q94 0 137 -43t43 -137v-347zM350 114v162l-86 -9q-36 -4 -62 -10.5t-51.5 -20
t-39 -37t-13.5 -57.5q0 -55 24.5 -82t68.5 -27q41 0 85.5 26t73.5 55z" />
    <glyph glyph-name="atilde" unicode="&#xe3;" horiz-adv-x="488" 
d="M397 737q0 -47 -20 -80.5t-68 -33.5q-35 0 -78 35q-5 4 -15.5 13.5t-16 14t-15.5 8.5t-21 4q-25 0 -37.5 -23t-12.5 -52h-38q0 47 20 80.5t68 33.5q39 0 79 -37q2 -1 11 -10t12.5 -11.5t11.5 -7.5t15.5 -7t16.5 -2q25 0 37.5 23t12.5 52h38zM404 0h-54v55
q-89 -70 -171 -70q-63 0 -100 43.5t-37 112.5q0 149 193 170l115 12v36q0 120 -126 120q-74 0 -127 -50l-33 40q54 58 160 58q94 0 137 -43t43 -137v-347zM350 114v162l-86 -9q-36 -4 -62 -10.5t-51.5 -20t-39 -37t-13.5 -57.5q0 -55 24.5 -82t68.5 -27q41 0 85.5 26
t73.5 55z" />
    <glyph glyph-name="adieresis" unicode="&#xe4;" horiz-adv-x="488" 
d="M356 674q0 -17 -12 -28.5t-29 -11.5t-28.5 12t-11.5 28q0 17 11.5 29t28.5 12t29 -12t12 -29zM192 674q0 -17 -12 -28.5t-29 -11.5t-28.5 12t-11.5 28q0 17 11.5 29t28.5 12t29 -12t12 -29zM404 0h-54v55q-89 -70 -171 -70q-63 0 -100 43.5t-37 112.5q0 149 193 170
l115 12v36q0 120 -126 120q-74 0 -127 -50l-33 40q54 58 160 58q94 0 137 -43t43 -137v-347zM350 114v162l-86 -9q-36 -4 -62 -10.5t-51.5 -20t-39 -37t-13.5 -57.5q0 -55 24.5 -82t68.5 -27q41 0 85.5 26t73.5 55z" />
    <glyph glyph-name="aring" unicode="&#xe5;" horiz-adv-x="488" 
d="M326 683q0 -40 -28.5 -68t-68.5 -28t-68 28t-28 68t28 68.5t68 28.5t68.5 -28.5t28.5 -68.5zM404 0h-54v55q-89 -70 -171 -70q-63 0 -100 43.5t-37 112.5q0 149 193 170l115 12v36q0 120 -126 120q-74 0 -127 -50l-33 40q54 58 160 58q94 0 137 -43t43 -137v-347z
M291 683q0 25 -18.5 43.5t-43.5 18.5t-43 -18t-18 -44q0 -25 18 -43t43 -18q26 0 44 18t18 43zM350 114v162l-86 -9q-36 -4 -62 -10.5t-51.5 -20t-39 -37t-13.5 -57.5q0 -55 24.5 -82t68.5 -27q41 0 85.5 26t73.5 55z" />
    <glyph glyph-name="ae" unicode="&#xe6;" horiz-adv-x="792" 
d="M742 250h-336q0 -93 37 -155t122 -62q73 0 121 46l29 -41q-59 -53 -148 -53q-129 0 -181 98q-47 -49 -93 -73.5t-103 -24.5q-70 0 -109 43t-39 113q0 149 193 170l115 12v36q0 120 -126 120q-74 0 -127 -50l-33 40q54 58 160 58q135 0 166 -103q52 103 166 103
q87 0 136.5 -61t49.5 -163v-53zM686 297q0 90 -35.5 136t-100.5 46q-61 0 -98.5 -47.5t-43.5 -134.5h278zM366 131q-16 47 -16 132v13l-86 -9q-36 -4 -62 -10.5t-51.5 -20t-39 -37t-13.5 -57.5q0 -109 99 -109q48 0 94 29t75 69z" />
    <glyph glyph-name="ccedilla" unicode="&#xe7;" horiz-adv-x="467" 
d="M424 433l-43 -26q-17 29 -46.5 50.5t-69.5 21.5q-77 0 -115 -59t-38 -165q0 -222 150 -222q59 0 117 41l31 -40q-65 -49 -151 -49h-2l-10 -20q94 -12 94 -77q0 -39 -29 -60.5t-79 -21.5q-47 0 -96 18l14 38q53 -15 79 -15q67 0 67 43q0 7 -2 13t-6 10.5t-8.5 8t-12 6
t-13 4t-15.5 2.5t-16 1.5t-17 1.5t-16 1l25 51q-83 14 -121.5 85t-38.5 181q0 125 51.5 198.5t151.5 73.5q114 0 165 -94z" />
    <glyph glyph-name="egrave" unicode="&#xe8;" horiz-adv-x="498" 
d="M324 603h-44l-147 163h88zM448 250h-336q0 -93 37 -155t122 -62q67 0 121 46l32 -40q-60 -54 -151 -54q-106 0 -161.5 68.5t-55.5 198.5q0 128 51.5 201.5t154.5 73.5q87 0 136.5 -61t49.5 -163v-53zM392 297q0 90 -35.5 136t-100.5 46q-129 0 -142 -182h278z" />
    <glyph glyph-name="eacute" unicode="&#xe9;" horiz-adv-x="498" 
d="M394 766l-147 -163h-44l103 163h88zM448 250h-336q0 -93 37 -155t122 -62q67 0 121 46l32 -40q-60 -54 -151 -54q-106 0 -161.5 68.5t-55.5 198.5q0 128 51.5 201.5t154.5 73.5q87 0 136.5 -61t49.5 -163v-53zM392 297q0 90 -35.5 136t-100.5 46q-129 0 -142 -182h278z
" />
    <glyph glyph-name="ecircumflex" unicode="&#xea;" horiz-adv-x="498" 
d="M408 603h-47l-102 125l-102 -125h-47l119 163h61zM448 250h-336q0 -93 37 -155t122 -62q67 0 121 46l32 -40q-60 -54 -151 -54q-106 0 -161.5 68.5t-55.5 198.5q0 128 51.5 201.5t154.5 73.5q87 0 136.5 -61t49.5 -163v-53zM392 297q0 90 -35.5 136t-100.5 46
q-129 0 -142 -182h278z" />
    <glyph glyph-name="edieresis" unicode="&#xeb;" horiz-adv-x="498" 
d="M381 674q0 -17 -12 -28.5t-29 -11.5q-16 0 -28 12t-12 28q0 17 11.5 29t28.5 12t29 -12t12 -29zM217 674q0 -17 -12 -28.5t-29 -11.5q-16 0 -28 12t-12 28q0 17 11.5 29t28.5 12t29 -12t12 -29zM448 250h-336q0 -93 37 -155t122 -62q67 0 121 46l32 -40q-60 -54 -151 -54
q-106 0 -161.5 68.5t-55.5 198.5q0 128 51.5 201.5t154.5 73.5q87 0 136.5 -61t49.5 -163v-53zM392 297q0 90 -35.5 136t-100.5 46q-129 0 -142 -182h278z" />
    <glyph glyph-name="igrave" unicode="&#xec;" horiz-adv-x="230" 
d="M161 603h-44l-147 163h88zM142 0h-54v512h54v-512z" />
    <glyph glyph-name="iacute" unicode="&#xed;" horiz-adv-x="230" 
d="M241 766l-147 -163h-44l103 163h88zM142 0h-54v512h54v-512z" />
    <glyph glyph-name="icircumflex" unicode="&#xee;" horiz-adv-x="230" 
d="M264 603h-47l-102 125l-102 -125h-47l119 163h61zM142 0h-54v512h54v-512z" />
    <glyph glyph-name="idieresis" unicode="&#xef;" horiz-adv-x="230" 
d="M228 674q0 -17 -12 -28.5t-29 -11.5t-28.5 12t-11.5 28q0 17 11.5 29t28.5 12t29 -12t12 -29zM84 674q0 -17 -12 -28.5t-29 -11.5t-28.5 12t-11.5 28q0 17 11.5 29t28.5 12t29 -12t12 -29zM142 0h-54v512h54v-512z" />
    <glyph glyph-name="eth" unicode="&#xf0;" horiz-adv-x="513" 
d="M457 282q0 -153 -52 -225t-144 -72q-98 0 -151.5 69.5t-53.5 200.5q0 132 53.5 202t147.5 70q64 0 114 -48q-30 73 -114 160l-94 -64l-23 33l87 60q-48 46 -91 74h76q27 -20 56 -46l66 46l24 -33l-60 -41q159 -160 159 -386zM401 255q0 96 -34.5 160t-109.5 64
q-76 0 -110.5 -64t-34.5 -160t35 -159t113 -63q72 0 106.5 64t34.5 158z" />
    <glyph glyph-name="ntilde" unicode="&#xf1;" horiz-adv-x="546" 
d="M434 737q0 -47 -20 -80.5t-68 -33.5q-35 0 -78 35q-5 4 -15.5 13.5t-16 14t-15.5 8.5t-21 4q-25 0 -37.5 -23t-12.5 -52h-38q0 47 20 80.5t68 33.5q39 0 79 -37q2 -1 11 -10t12.5 -11.5t11.5 -7.5t15.5 -7t16.5 -2q25 0 37.5 23t12.5 52h38zM462 0h-54v310
q0 86 -18 125.5t-78 39.5q-69 0 -170 -76v-399h-54v512h54v-60q99 75 176 75t110.5 -48t33.5 -142v-337z" />
    <glyph glyph-name="ograve" unicode="&#xf2;" horiz-adv-x="513" 
d="M322 603h-44l-147 163h88zM457 255q0 -129 -53 -199.5t-143 -70.5q-98 0 -151.5 69.5t-53.5 200.5q0 132 53.5 202t147.5 70t147 -70.5t53 -201.5zM401 255q0 96 -34.5 160t-109.5 64q-76 0 -110.5 -64t-34.5 -160t35 -159t113 -63q72 0 106.5 64t34.5 158z" />
    <glyph glyph-name="oacute" unicode="&#xf3;" horiz-adv-x="513" 
d="M392 766l-147 -163h-44l103 163h88zM457 255q0 -129 -53 -199.5t-143 -70.5q-98 0 -151.5 69.5t-53.5 200.5q0 132 53.5 202t147.5 70t147 -70.5t53 -201.5zM401 255q0 96 -34.5 160t-109.5 64q-76 0 -110.5 -64t-34.5 -160t35 -159t113 -63q72 0 106.5 64t34.5 158z" />
    <glyph glyph-name="ocircumflex" unicode="&#xf4;" horiz-adv-x="513" 
d="M405 603h-47l-102 125l-102 -125h-47l119 163h61zM457 255q0 -129 -53 -199.5t-143 -70.5q-98 0 -151.5 69.5t-53.5 200.5q0 132 53.5 202t147.5 70t147 -70.5t53 -201.5zM401 255q0 96 -34.5 160t-109.5 64q-76 0 -110.5 -64t-34.5 -160t35 -159t113 -63q72 0 106.5 64
t34.5 158z" />
    <glyph glyph-name="otilde" unicode="&#xf5;" horiz-adv-x="513" 
d="M417 737q0 -47 -20 -80.5t-68 -33.5q-35 0 -78 35q-5 4 -15.5 13.5t-16 14t-15.5 8.5t-21 4q-25 0 -37.5 -23t-12.5 -52h-38q0 47 20 80.5t68 33.5q39 0 79 -37q2 -1 11 -10t12.5 -11.5t11.5 -7.5t15.5 -7t16.5 -2q25 0 37.5 23t12.5 52h38zM457 255q0 -129 -53 -199.5
t-143 -70.5q-98 0 -151.5 69.5t-53.5 200.5q0 132 53.5 202t147.5 70t147 -70.5t53 -201.5zM401 255q0 96 -34.5 160t-109.5 64q-76 0 -110.5 -64t-34.5 -160t35 -159t113 -63q72 0 106.5 64t34.5 158z" />
    <glyph glyph-name="odieresis" unicode="&#xf6;" horiz-adv-x="513" 
d="M379 674q0 -17 -12 -28.5t-29 -11.5q-16 0 -28 12t-12 28q0 17 11.5 29t28.5 12t29 -12t12 -29zM215 674q0 -17 -12 -28.5t-29 -11.5q-16 0 -28 12t-12 28q0 17 11.5 29t28.5 12t29 -12t12 -29zM457 255q0 -129 -53 -199.5t-143 -70.5q-98 0 -151.5 69.5t-53.5 200.5
q0 132 53.5 202t147.5 70t147 -70.5t53 -201.5zM401 255q0 96 -34.5 160t-109.5 64q-76 0 -110.5 -64t-34.5 -160t35 -159t113 -63q72 0 106.5 64t34.5 158z" />
    <glyph glyph-name="divide" unicode="&#xf7;" horiz-adv-x="583" 
d="M333 573q0 -18 -12 -30t-29 -12t-29.5 12.5t-12.5 29.5t12.5 29.5t29.5 12.5q18 0 29.5 -12t11.5 -30zM540 339h-496v49h496v-49zM333 154q0 -18 -12 -30t-29 -12t-29.5 12.5t-12.5 29.5t12.5 29.5t29.5 12.5q18 0 29.5 -12t11.5 -30z" />
    <glyph glyph-name="oslash" unicode="&#xf8;" horiz-adv-x="513" 
d="M457 255q0 -129 -53 -199.5t-143 -70.5q-70 0 -119 37l-35 -58h-55l55 93q-51 71 -51 198q0 132 53.5 202t147.5 70q64 0 109 -33l33 55h57l-54 -91q55 -72 55 -203zM339 448q-34 31 -82 31q-76 0 -110.5 -64t-34.5 -160q0 -90 27 -144zM401 255q0 92 -30 151l-202 -338
q35 -35 91 -35q72 0 106.5 64t34.5 158z" />
    <glyph glyph-name="ugrave" unicode="&#xf9;" horiz-adv-x="546" 
d="M328 603h-44l-147 163h88zM458 0h-54v60q-99 -75 -176 -75t-110.5 48t-33.5 142v337h54v-310q0 -86 18 -125.5t78 -39.5q69 0 170 76v399h54v-512z" />
    <glyph glyph-name="uacute" unicode="&#xfa;" horiz-adv-x="546" 
d="M418 766l-147 -163h-44l103 163h88zM458 0h-54v60q-99 -75 -176 -75t-110.5 48t-33.5 142v337h54v-310q0 -86 18 -125.5t78 -39.5q69 0 170 76v399h54v-512z" />
    <glyph glyph-name="ucircumflex" unicode="&#xfb;" horiz-adv-x="546" 
d="M422 603h-47l-102 125l-102 -125h-47l119 163h61zM458 0h-54v60q-99 -75 -176 -75t-110.5 48t-33.5 142v337h54v-310q0 -86 18 -125.5t78 -39.5q69 0 170 76v399h54v-512z" />
    <glyph glyph-name="udieresis" unicode="&#xfc;" horiz-adv-x="546" 
d="M395 674q0 -17 -12 -28.5t-29 -11.5q-16 0 -28 12t-12 28q0 17 11.5 29t28.5 12t29 -12t12 -29zM231 674q0 -17 -12 -28.5t-29 -11.5q-16 0 -28 12t-12 28q0 17 11.5 29t28.5 12t29 -12t12 -29zM458 0h-54v60q-99 -75 -176 -75t-110.5 48t-33.5 142v337h54v-310
q0 -86 18 -125.5t78 -39.5q69 0 170 76v399h54v-512z" />
    <glyph glyph-name="yacute" unicode="&#xfd;" horiz-adv-x="470" 
d="M388 766l-147 -163h-44l103 163h88zM451 512l-213 -568q-29 -76 -68.5 -106.5t-97.5 -30.5q-47 0 -76 13l16 48q31 -13 69 -13q72 0 108 101l20 57l-190 499h61l157 -424l156 424h58z" />
    <glyph glyph-name="thorn" unicode="&#xfe;" horiz-adv-x="528" 
d="M472 270q0 -133 -56 -209t-154 -76q-62 0 -120 24v-202h-54v920h54v-263q26 26 67 44.5t81 18.5q95 0 138.5 -69.5t43.5 -187.5zM416 272q0 207 -130 207q-72 0 -144 -67v-349q54 -30 119 -30q67 0 111 61.5t44 177.5z" />
    <glyph glyph-name="ydieresis" unicode="&#xff;" horiz-adv-x="470" 
d="M361 674q0 -17 -12 -28.5t-29 -11.5q-16 0 -28 12t-12 28q0 17 11.5 29t28.5 12t29 -12t12 -29zM197 674q0 -17 -12 -28.5t-29 -11.5q-16 0 -28 12t-12 28q0 17 11.5 29t28.5 12t29 -12t12 -29zM451 512l-213 -568q-29 -76 -68.5 -106.5t-97.5 -30.5q-44 0 -76 14l16 46
q22 -12 69 -12q72 0 108 101l20 57l-190 499h61l157 -424l156 424h58z" />
    <glyph glyph-name="dotlessi" unicode="&#x131;" horiz-adv-x="230" 
d="M142 0h-54v512h54v-512z" />
    <glyph glyph-name="Lslash" unicode="&#x141;" horiz-adv-x="490" 
d="M469 0h-374v298l-88 -68v57l88 68v372h55v-329l127 99v-57l-127 -99v-292h319v-49z" />
    <glyph glyph-name="lslash" unicode="&#x142;" horiz-adv-x="263" 
d="M259 -2q-25 -9 -65 -9q-63 0 -84.5 35t-21.5 123v171l-74 -56v53l74 56v356h54v-315l92 71v-53l-92 -71v-218q0 -62 12 -82.5t50 -20.5q22 0 46 7z" />
    <glyph glyph-name="OE" unicode="&#x152;" horiz-adv-x="887" 
d="M826 0h-381q-45 -15 -118 -15q-132 0 -195.5 100t-63.5 278q0 182 64.5 280.5t195.5 98.5q60 0 117 -15h381v-49h-326v-270h294v-49h-294v-310h326v-49zM445 53v622q-56 17 -113 17q-206 0 -206 -329q0 -328 206 -328q68 0 113 18z" />
    <glyph glyph-name="oe" unicode="&#x153;" horiz-adv-x="840" 
d="M790 250h-336v-8q0 -42 8 -77.5t25.5 -66t49.5 -48t76 -17.5q73 0 121 46l29 -41q-59 -53 -148 -53q-68 0 -116.5 33.5t-71.5 93.5q-19 -59 -64 -93t-102 -34q-98 0 -151.5 69.5t-53.5 200.5q0 132 53.5 202t147.5 70q125 0 170 -125q26 59 67 92t110 33q87 0 136.5 -61
t49.5 -163v-53zM734 297q0 90 -35.5 136t-100.5 46q-61 0 -98.5 -47.5t-43.5 -134.5h278zM401 256q-1 97 -35.5 160t-108.5 63q-76 0 -110.5 -64t-34.5 -160t35 -159t113 -63q72 0 107 64t34 159z" />
    <glyph glyph-name="Scaron" unicode="&#x160;" horiz-adv-x="545" 
d="M421 945l-119 -163h-61l-118 163h47l102 -125l102 125h47zM501 191q0 -71 -35 -119t-85 -67.5t-109 -19.5q-156 0 -228 129l44 28q32 -53 75.5 -80t110.5 -27q72 0 120.5 40t48.5 112q0 62 -40.5 99t-121.5 58q-119 31 -175 80t-56 129t59 134.5t164 54.5q143 0 207 -117
l-45 -27q-57 94 -162 94q-73 0 -119 -36t-46 -94q0 -64 38 -97t141 -64q111 -33 162.5 -79t51.5 -131z" />
    <glyph glyph-name="scaron" unicode="&#x161;" horiz-adv-x="443" 
d="M370 766l-119 -163h-61l-118 163h47l102 -125l102 125h47zM399 141q0 -70 -47.5 -113t-127.5 -43q-123 0 -180 88l42 29q46 -69 139 -69q56 0 87 29.5t31 71.5q0 41 -25.5 63t-90.5 37q-86 20 -127.5 54t-41.5 98q0 67 47 104t123 37q45 0 89.5 -20t71.5 -63l-41 -30
q-20 30 -53 47.5t-68 17.5q-49 0 -81 -22t-32 -65q0 -46 29.5 -67.5t101.5 -38.5q77 -17 115.5 -51t38.5 -94z" />
    <glyph glyph-name="Ydieresis" unicode="&#x178;" horiz-adv-x="539" 
d="M398 853q0 -17 -12 -28.5t-29 -11.5t-28.5 11.5t-11.5 28.5t11.5 29t28.5 12t29 -12t12 -29zM234 853q0 -17 -12 -28.5t-29 -11.5t-28.5 11.5t-11.5 28.5t11.5 29t28.5 12t29 -12t12 -29zM533 727l-230 -431v-296h-55v294l-242 433h67l202 -372l192 372h66z" />
    <glyph glyph-name="Zcaron" unicode="&#x17d;" horiz-adv-x="556" 
d="M436 945l-119 -163h-61l-118 163h47l102 -125l102 125h47zM516 0h-476v49l402 629h-385v49h449v-49l-403 -629h413v-49z" />
    <glyph glyph-name="zcaron" unicode="&#x17e;" horiz-adv-x="436" 
d="M372 766l-119 -163h-61l-118 163h47l102 -125l102 125h47zM403 0h-369v47l297 418h-291v47h355v-47l-295 -418h303v-47z" />
    <glyph glyph-name="florin" unicode="&#x192;" horiz-adv-x="507" 
d="M487 726l-16 -46q-37 16 -64 16q-21 0 -33 -5t-26 -29.5t-23 -71.5l-16 -78h97l-8 -47h-99l-107 -521q-27 -137 -124 -137q-46 0 -88 14l12 43q38 -10 58 -10q38 0 59 26t36 99l99 486h-90l12 47h88l16 75q8 38 16 61t22.5 47t38.5 35.5t59 11.5q39 0 81 -16z" />
    <glyph glyph-name="circumflex" unicode="&#x2c6;" horiz-adv-x="300" 
d="M299 603h-47l-102 125l-102 -125h-47l119 163h61z" />
    <glyph glyph-name="caron" unicode="&#x2c7;" horiz-adv-x="300" 
d="M299 766l-119 -163h-61l-118 163h47l102 -125l102 125h47z" />
    <glyph glyph-name="breve" unicode="&#x2d8;" horiz-adv-x="300" 
d="M278 753q-30 -116 -134 -116q-101 0 -131 116h41q31 -69 91 -69q35 0 56 17.5t37 51.5h40z" />
    <glyph glyph-name="dotaccent" unicode="&#x2d9;" horiz-adv-x="300" 
d="M190 674q0 -17 -12 -28.5t-29 -11.5t-28.5 12t-11.5 28q0 17 11.5 29t28.5 12t29 -12t12 -29z" />
    <glyph glyph-name="ring" unicode="&#x2da;" horiz-adv-x="300" 
d="M246 683q0 -40 -28.5 -68t-68.5 -28t-68 28t-28 68t28 68.5t68 28.5t68.5 -28.5t28.5 -68.5zM211 683q0 25 -18.5 43.5t-43.5 18.5t-43 -18t-18 -44q0 -25 18 -43t43 -18q26 0 44 18t18 43z" />
    <glyph glyph-name="ogonek" unicode="&#x2db;" horiz-adv-x="300" 
d="M256 -167q-43 -26 -97 -26q-43 0 -67 29.5t-24 75.5q0 55 33 119h36q-25 -50 -25 -100q0 -83 64 -83q32 0 67 14z" />
    <glyph glyph-name="tilde" unicode="&#x2dc;" horiz-adv-x="300" 
d="M311 737q0 -47 -20 -80.5t-68 -33.5q-35 0 -78 35q-5 4 -15.5 13.5t-16 14t-15.5 8.5t-21 4q-25 0 -37.5 -23t-12.5 -52h-38q0 47 20 80.5t68 33.5q39 0 79 -37q2 -1 11 -10t12.5 -11.5t11.5 -7.5t15.5 -7t16.5 -2q25 0 37.5 23t12.5 52h38z" />
    <glyph glyph-name="hungarumlaut" unicode="&#x2dd;" horiz-adv-x="300" 
d="M303 766l-123 -163h-39l83 163h79zM173 766l-123 -163h-39l83 163h79z" />
    <glyph glyph-name="pi" unicode="&#x3c0;" horiz-adv-x="637" 
d="M560 47l12 -42q-20 -11 -54 -11q-54 0 -81 33.5t-27 87.5v339h-202v-325q0 -76 -12 -129h-57q14 52 14 130v324q-55 -2 -100 -21l-17 42q50 25 130 25h406v-46h-107v-334q0 -80 64 -80q17 0 31 7z" />
    <glyph glyph-name="endash" unicode="&#x2013;" horiz-adv-x="500" 
d="M503 228h-506v56h506v-56z" />
    <glyph glyph-name="emdash" unicode="&#x2014;" horiz-adv-x="1000" 
d="M1003 228h-1006v56h1006v-56z" />
    <glyph glyph-name="quoteleft" unicode="&#x2018;" horiz-adv-x="237" 
d="M170 546q0 -22 -13.5 -37t-36.5 -15q-24 0 -38 17.5t-14 49.5q0 80 63 181l30 -19q-48 -70 -48 -127q25 0 41 -13.5t16 -36.5z" />
    <glyph glyph-name="quoteright" unicode="&#x2019;" horiz-adv-x="237" 
d="M170 675q0 -80 -63 -181l-30 19q48 70 48 127q-25 0 -41 13.5t-16 36.5q0 22 13.5 37t36.5 15q24 0 38 -17.5t14 -49.5z" />
    <glyph glyph-name="quotesinglbase" unicode="&#x201a;" horiz-adv-x="237" 
d="M170 28q0 -80 -63 -181l-30 19q48 70 48 127q-25 0 -41 13.5t-16 36.5q0 22 13.5 37t36.5 15q24 0 38 -17.5t14 -49.5z" />
    <glyph glyph-name="quotedblleft" unicode="&#x201c;" horiz-adv-x="407" 
d="M340 546q0 -22 -13.5 -37t-36.5 -15q-24 0 -38 17.5t-14 49.5q0 80 63 181l30 -19q-48 -70 -48 -127q25 0 41 -13.5t16 -36.5zM170 546q0 -22 -13.5 -37t-36.5 -15q-24 0 -38 17.5t-14 49.5q0 80 63 181l30 -19q-48 -70 -48 -127q25 0 41 -13.5t16 -36.5z" />
    <glyph glyph-name="quotedblright" unicode="&#x201d;" horiz-adv-x="407" 
d="M340 675q0 -80 -63 -181l-30 19q48 70 48 127q-25 0 -41 13.5t-16 36.5q0 22 13.5 37t36.5 15q24 0 38 -17.5t14 -49.5zM170 675q0 -80 -63 -181l-30 19q48 70 48 127q-25 0 -41 13.5t-16 36.5q0 22 13.5 37t36.5 15q24 0 38 -17.5t14 -49.5z" />
    <glyph glyph-name="quotedblbase" unicode="&#x201e;" horiz-adv-x="407" 
d="M340 28q0 -80 -63 -181l-30 19q48 70 48 127q-25 0 -41 13.5t-16 36.5q0 22 13.5 37t36.5 15q24 0 38 -17.5t14 -49.5zM170 28q0 -80 -63 -181l-30 19q48 70 48 127q-25 0 -41 13.5t-16 36.5q0 22 13.5 37t36.5 15q24 0 38 -17.5t14 -49.5z" />
    <glyph glyph-name="dagger" unicode="&#x2020;" horiz-adv-x="464" 
d="M422 440h-163v-633h-54v633h-163v47h163v255h54v-255h163v-47z" />
    <glyph glyph-name="daggerdbl" unicode="&#x2021;" horiz-adv-x="464" 
d="M422 72h-163v-265h-54v265h-163v47h163v321h-163v47h163v255h54v-255h163v-47h-163v-321h163v-47z" />
    <glyph glyph-name="bullet" unicode="&#x2022;" horiz-adv-x="358" 
d="M302 366q0 -50 -36.5 -86.5t-87.5 -36.5q-50 0 -86.5 36.5t-36.5 86.5q0 51 36.5 87.5t86.5 36.5q51 0 87.5 -36.5t36.5 -87.5z" />
    <glyph glyph-name="ellipsis" unicode="&#x2026;" horiz-adv-x="1000" 
d="M894 45q0 -23 -14 -37.5t-38 -14.5q-20 0 -35 15.5t-15 36.5q0 20 15 35t36 15q20 0 35.5 -15t15.5 -35zM551 45q0 -23 -14 -37.5t-38 -14.5q-20 0 -35 15.5t-15 36.5q0 20 15 35t36 15q20 0 35.5 -15t15.5 -35zM208 45q0 -23 -14 -37.5t-38 -14.5q-20 0 -35 15.5
t-15 36.5q0 20 15 35t36 15q20 0 35.5 -15t15.5 -35z" />
    <glyph glyph-name="perthousand" unicode="&#x2030;" horiz-adv-x="1203" 
d="M1163 196q0 -105 -43 -158t-106 -53q-67 0 -111 52t-44 160q0 107 46.5 160t112.5 53q68 0 106.5 -57.5t38.5 -156.5zM783 196q0 -105 -43 -158t-106 -53q-67 0 -111 52t-44 160q0 107 46.5 160t112.5 53q68 0 106.5 -57.5t38.5 -156.5zM641 742l-403 -757h-55l401 757
h57zM344 528q0 -105 -43 -158t-106 -53q-67 0 -111 52t-44 160q0 107 46.5 160t112.5 53q68 0 106.5 -57.5t38.5 -156.5zM1109 196q0 86 -26 125.5t-68 39.5q-49 0 -76 -44.5t-27 -119.5q0 -79 28.5 -121t70.5 -42q48 0 73 42.5t25 119.5zM729 196q0 86 -26 125.5t-68 39.5
q-49 0 -76 -44.5t-27 -119.5q0 -79 28.5 -121t70.5 -42q48 0 73 42.5t25 119.5zM290 528q0 86 -26 125.5t-68 39.5q-49 0 -76 -44.5t-27 -119.5q0 -79 28.5 -121t70.5 -42q48 0 73 42.5t25 119.5z" />
    <glyph glyph-name="guilsinglleft" unicode="&#x2039;" horiz-adv-x="280" 
d="M260 26h-68l-172 230l172 230h68l-174 -230z" />
    <glyph glyph-name="guilsinglright" unicode="&#x203a;" horiz-adv-x="280" 
d="M260 256l-172 -230h-68l174 230l-174 230h68z" />
    <glyph glyph-name="fraction" unicode="&#x2044;" horiz-adv-x="159" 
d="M311 742l-403 -757h-55l401 757h57z" />
    <glyph glyph-name="litre" unicode="&#x2113;" horiz-adv-x="474" 
d="M373 87l25 -31q-56 -68 -124 -68q-47 0 -73 28q-34 36 -34 112v131l-60 -68l-31 30l91 105v241q0 79 28.5 120t78.5 41q44 0 66 -30t22 -68q0 -66 -28.5 -130t-81.5 -138q-5 -6 -16 -21.5t-15 -19.5v-199q0 -89 62 -89q40 0 90 54zM313 625q0 23 -9.5 40t-28.5 17
q-54 0 -54 -118v-171l20 28q72 114 72 204z" />
    <glyph glyph-name="trademark" unicode="&#x2122;" horiz-adv-x="715" 
d="M684 378h-45v290h-2l-99 -196h-30l-97 198h-2v-292h-44v349h63l96 -193l100 193h60v-349zM298 686h-111v-308h-47v308h-112v41h270v-41z" />
    <glyph glyph-name="Omega" unicode="&#x2126;" horiz-adv-x="700" 
d="M630 0h-210v47q29 26 51 51t48 66t40.5 95.5t14.5 117.5q0 127 -61 207t-171 80q-105 0 -170.5 -80.5t-65.5 -205.5q0 -196 155 -331v-47h-210v47h150q-151 127 -151 336q0 142 82 235.5t211 93.5q133 0 210 -90t77 -238q0 -110 -45 -197.5t-107 -139.5h152v-47z" />
    <glyph glyph-name="estimated" unicode="&#x212e;" horiz-adv-x="645" 
d="M606 288h-444v-198q65 -65 158 -65q133 0 212 131l36 -21q-49 -73 -106 -110t-142 -37q-127 0 -204 86t-77 214q0 129 76.5 215t204.5 86q130 0 206 -85.5t80 -215.5zM479 325v161q-68 66 -159 66q-95 0 -158 -65v-162h317z" />
    <glyph glyph-name="partialdiff" unicode="&#x2202;" horiz-adv-x="566" 
d="M503 500q0 -91 -25 -197q-15 -58 -37 -109.5t-55 -99.5t-79 -76t-99 -28q-71 0 -114.5 49t-43.5 130q0 139 78.5 235.5t180.5 96.5q49 0 82.5 -21.5t49.5 -54.5h2q5 37 5 77q0 177 -138 177q-46 0 -90 -25l-16 42q18 11 50.5 20.5t62.5 9.5q87 0 136.5 -58t49.5 -168z
M434 361q-12 42 -44 68t-81 26q-82 0 -143 -86t-61 -201q0 -61 29.5 -96t76.5 -35q75 0 134 86t89 238z" />
    <glyph glyph-name="Delta" unicode="&#x2206;" horiz-adv-x="596" 
d="M558 0h-532v32l237 668h60l235 -668v-32zM493 48l-186 533q-5 14 -9 34l-5 20h-3q-5 -22 -15 -53l-186 -534h404z" />
    <glyph glyph-name="product" unicode="&#x220f;" horiz-adv-x="706" 
d="M602 -230h-56v882h-400v-882h-56v930h512v-930z" />
    <glyph glyph-name="summation" unicode="&#x2211;" horiz-adv-x="620" 
d="M573 -230h-551v22l333 447l-308 433v28h500v-47h-425l294 -413l-314 -423h471v-47z" />
    <glyph glyph-name="minus" unicode="&#x2212;" horiz-adv-x="583" 
d="M541 339h-499v50h499v-50z" />
    <glyph glyph-name="radical" unicode="&#x221a;" horiz-adv-x="500" 
d="M493 728l-190 -740h-47l-138 356l-52 -30l-20 39l101 55l131 -335l167 655h48z" />
    <glyph glyph-name="infinity" unicode="&#x221e;" horiz-adv-x="766" 
d="M691 294q0 -65 -40.5 -109t-106.5 -44q-55 0 -99 31t-73 78h-2q-31 -48 -74 -78.5t-92 -30.5q-69 0 -110 42t-41 107q0 67 40 109.5t108 42.5q102 0 170 -108h2q71 108 167 108q66 0 108.5 -40.5t42.5 -107.5zM639 293q0 45 -25.5 74.5t-73.5 29.5q-78 0 -144 -105
q28 -51 65.5 -78.5t76.5 -27.5q50 0 75.5 30.5t25.5 76.5zM348 292q-27 47 -66 76t-78 29q-50 0 -74.5 -30.5t-24.5 -77.5q0 -45 28 -74t71 -29q80 0 144 106z" />
    <glyph glyph-name="integral" unicode="&#x222b;" horiz-adv-x="484" 
d="M405 737l-13 -45q-18 10 -44 10q-84 0 -84 -103v-671q0 -71 -36.5 -110.5t-100.5 -39.5q-36 0 -60 11l12 44q19 -8 45 -8q84 0 84 102v672q0 69 37 109t102 40q36 0 58 -11z" />
    <glyph glyph-name="approxequal" unicode="&#x2248;" horiz-adv-x="583" 
d="M554 493q-66 -86 -152 -86q-56 0 -118 37q-64 37 -106 37q-62 0 -113 -71l-36 34q33 41 67 63.5t82 22.5q62 0 119 -36q62 -38 107 -38q63 0 114 71zM554 283q-68 -86 -152 -86q-56 0 -118 37q-65 38 -106 38q-61 0 -113 -72l-36 35q33 41 67 63.5t82 22.5q62 0 119 -36
q64 -39 107 -39q63 0 114 71z" />
    <glyph glyph-name="notequal" unicode="&#x2260;" horiz-adv-x="583" 
d="M540 234h-292l-76 -152h-53l77 152h-153v49h179l82 162h-261v49h287l76 151h52l-77 -151h159v-49h-184l-82 -162h266v-49z" />
    <glyph glyph-name="lessequal" unicode="&#x2264;" horiz-adv-x="583" 
d="M540 199l-497 215v23l497 215v-55l-400 -170v-2l400 -172v-54zM540 71h-497v49h497v-49z" />
    <glyph glyph-name="greaterequal" unicode="&#x2265;" horiz-adv-x="583" 
d="M540 413l-497 -214v54l400 170v3l-400 171v55l497 -215v-24zM540 71h-497v49h497v-49z" />
    <glyph glyph-name="lozenge" unicode="&#x25ca;" horiz-adv-x="548" 
d="M280 700l194 -350l-194 -350h-32l-193 349l193 351h32zM264 67l157 283l-157 283l-157 -283z" />
    <glyph glyph-name="Euro" 
d="M512 614l-43 -25q-23 47 -57.5 75t-94.5 28q-161 0 -186 -231h266l-15 -47h-255q-1 -17 -1 -51q0 -30 1 -44h224l-16 -47h-205q22 -237 192 -237q77 0 147 59l30 -41q-71 -68 -179 -68q-220 0 -248 287h-69v47h66q-1 14 -1 44q0 34 1 51h-66v47h70q31 281 245 281
q137 0 194 -128z" />
    <glyph glyph-name="zero.fitted" 
d="M464 364q0 -197 -47 -288t-158 -91q-112 0 -158.5 90t-46.5 288q0 202 48.5 290.5t156.5 88.5q112 0 158.5 -90t46.5 -288zM409 364q0 66 -3 113t-12.5 90.5t-25.5 69.5t-43 41t-64 15q-90 0 -121 -77t-31 -253q0 -69 3.5 -118t13.5 -91t26.5 -67t43.5 -39t64 -14
q88 0 118.5 77t30.5 253z" />
    <glyph glyph-name="one.fitted" horiz-adv-x="348" 
d="M236 0h-53v631q-82 -55 -153 -68v48q111 33 174 131h32v-742z" />
    <glyph glyph-name="two.fitted" 
d="M458 0h-413v49l154 168q115 125 154.5 189t39.5 141q0 63 -36.5 104.5t-103.5 41.5q-56 0 -94.5 -27.5t-74.5 -75.5l-40 33q88 119 211 119q82 0 137.5 -51t55.5 -148q0 -73 -37 -143t-118 -156l-183 -195h348v-49z" />
    <glyph glyph-name="three.fitted" horiz-adv-x="488" 
d="M423 209q0 -102 -54.5 -163t-152.5 -61q-107 0 -189 84l36 38q66 -73 152 -73q73 0 113 46.5t40 128.5q0 156 -162 156h-48v49h49q67 0 109 40t42 106q0 61 -34 97t-94 36q-50 0 -85.5 -17.5t-70.5 -56.5l-37 37q74 86 188 86q86 0 137 -48.5t51 -126.5q0 -71 -31.5 -111
t-91.5 -63q61 -12 97 -58t36 -126z" />
    <glyph glyph-name="four.fitted" 
d="M473 183h-70v-198h-55v198h-322v49l341 510h36v-510h70v-49zM348 232v404l-267 -404h267z" />
    <glyph glyph-name="five.fitted" 
d="M449 229q0 -110 -54.5 -177t-161.5 -67q-120 0 -185 99l41 32q54 -82 145 -82q78 0 119 54.5t41 138.5q0 88 -42.5 129.5t-112.5 41.5q-67 0 -133 -49h-32l40 378h322v-50h-276l-28 -262q48 32 118 32q91 0 145 -59.5t54 -158.5z" />
    <glyph glyph-name="six.fitted" 
d="M468 235q0 -121 -53 -185.5t-142 -64.5q-219 0 -219 345q0 195 66 303.5t183 108.5q90 0 155 -61l-34 -40q-56 52 -120 52q-84 0 -134 -81.5t-59 -214.5q31 22 74.5 39t83.5 17q93 0 146 -56.5t53 -161.5zM413 231q0 173 -151 173q-35 0 -77.5 -18t-74.5 -42
q-1 -21 -1 -32q0 -278 164 -278q65 0 102.5 49.5t37.5 147.5z" />
    <glyph glyph-name="seven.fitted" horiz-adv-x="467" 
d="M439 677l-272 -692h-62l280 692h-369v50h423v-50z" />
    <glyph glyph-name="eight.fitted" 
d="M466 183q0 -95 -58 -146.5t-149 -51.5q-96 0 -151.5 53.5t-55.5 141.5q0 138 158 207q-31 17 -47 27.5t-42 34t-38.5 54t-12.5 69.5q0 76 50.5 123t138.5 47t138.5 -47t50.5 -123q0 -37 -12 -67.5t-35 -53t-42.5 -36t-47.5 -28.5q155 -74 155 -204zM393 568
q0 62 -36 93.5t-98 31.5q-64 0 -99 -32.5t-35 -88.5q0 -48 27.5 -84.5t106.5 -75.5q66 31 100 67t34 89zM411 182q0 67 -39 107t-113 72q-74 -31 -113 -72t-39 -108q0 -69 39.5 -108t113.5 -39q72 0 111.5 39t39.5 109z" />
    <glyph glyph-name="nine.fitted" 
d="M464 397q0 -196 -64.5 -304t-183.5 -108q-91 0 -156 61l34 40q55 -52 121 -52q87 0 134.5 80.5t57.5 215.5q-31 -22 -75 -39t-86 -17q-91 0 -143.5 56.5t-52.5 161.5q0 119 52.5 184.5t147.5 65.5q48 0 85 -16.5t67 -54.5t46 -107t16 -167zM409 424q0 127 -38.5 198
t-116.5 71q-149 0 -149 -197q0 -173 146 -173q76 0 157 60q1 21 1 41z" />
    </font>
</defs>
</svg>
